Browse Collections Artists Sources   Search Dates

Add Show    List Management    Help


Phish 06/09/09
Asheville Civic Center, Asheville, NC
Comments Add Comment    Source Collectors    Add to Collection    Add to Want List    History
Source # 99442 Other Sources
Entered by Jason Sobel
Checksums 16bit-FFP
Disc Counts 2 / 2
Media Size
Date Circulated
Date Added
06/10/2009
06/10/2009
Source Summary Neumann ak40 > lc3 > km100 (din) > Lunatec V3 (analog) > Edirol R-44 (@ 24/48); SDHC card > wavelab 5.01b (fades, resample/dither to 16bit/44.1kHz) > cd wave > traders little helper (flac level 8); Taped & Transferred by Gordon Wilson  
Source Information - Download Text | Download Zip
Phish
06/09/2009
Asheville Civic Center
Asheville,NC

source: Neumann ak40 > lc3 > km100 (din) > Lunatec V3 (analog) > Edirol R-44 @ 24/48
location: OTS DFC
transfer: SDHC card > PC > wavelab 5.01b > cd wave > traders little helper (flac level 8)

all editing (fades at beginning and end of sets, resampled w/ resampler 192, dither w/ iZotope Ozone 3) done in wavelab 5.01b

*16bit/44.1khz fileset*

recorded and transferred by Gordon Wilson

set one:
01. Intro
02. Kill Devil Falls
03. Moma Dance ->
04. Sample In A Jar
05. Stash
06. Dog Faced Boy
07. Gumbo
08. Tube
09. Lengthwise
10. Divided Sky
11. When The Cactus Is In Bloom *
12. Axis: Bold As Love


set two;

01. Intro
02. Backwards Down The Number Line ->
03. Ghost->
04. Fast Enough For You
05. Halley's Comet ->
06. Maze
07. Alaska
08. Theme From The Bottom
09. Golgi Apparatus
10. Possum

encore:
11. Loving Cup

* First Time Played
suggested disc split for set two is after track 8

shntool 3.0.4
Copyright (C) 2000-2007 Jason Jordan

length expanded size cdr WAVE problems fmt ratio filename
1:21.31 14361356 B --- -- ---xx flac 0.5098 phish2009-06-09s1t01.flac
8:53.71 94188236 B --- -- ---xx flac 0.5836 phish2009-06-09s1t02.flac
7:26.61 78817916 B --- -- ---xx flac 0.5879 phish2009-06-09s1t03.flac
6:22.53 67509500 B --- -- ---xx flac 0.5743 phish2009-06-09s1t04.flac
14:09.65 149916524 B --- -- ---xx flac 0.5569 phish2009-06-09s1t05.flac
3:13.68 34205180 B --- -- ---xx flac 0.4629 phish2009-06-09s1t06.flac
4:53.54 51812252 B --- -- ---xx flac 0.5732 phish2009-06-09s1t07.flac
7:00.60 74229164 B --- -- ---xx flac 0.5862 phish2009-06-09s1t08.flac
1:04.32 11364908 B --- -- ---xx flac 0.4770 phish2009-06-09s1t09.flac
14:49.37 156906668 B --- -- ---xx flac 0.5681 phish2009-06-09s1t10.flac
3:18.14 34960172 B --- -- ---xx flac 0.5682 phish2009-06-09s1t11.flac
5:54.36 62530316 B --- -- ---xx flac 0.6030 phish2009-06-09s1t12.flac
1:31.06 16066556 B --- -- ---xx flac 0.4566 phish2009-06-09s2t01.flac
8:54.15 94232924 B --- -- ---xx flac 0.5885 phish2009-06-09s2t02.flac
15:15.55 161535404 B --- -- ---xx flac 0.5896 phish2009-06-09s2t03.flac
8:12.58 86925260 B --- -- ---xx flac 0.5453 phish2009-06-09s2t04.flac
6:13.01 65799596 B --- -- ---xx flac 0.5853 phish2009-06-09s2t05.flac
11:27.63 121335020 B --- -- ---xx flac 0.5989 phish2009-06-09s2t06.flac
9:49.57 104033708 B --- -- ---xx flac 0.5711 phish2009-06-09s2t07.flac
8:27.46 89543036 B --- -- ---xx flac 0.5692 phish2009-06-09s2t08.flac
4:41.00 49568444 B --- -- ---xx flac 0.5896 phish2009-06-09s2t09.flac
12:04.61 127857116 B --- -- ---xx flac 0.5692 phish2009-06-09s2t10.flac
7:45.44 82129532 B --- -- ---xx flac 0.5977 phish2009-06-09s2t11.flac
172:53.13 1829828788 B 0.5739 (23 files)
Show Checksums
16bit-FFP
phish2009-06-09s1t01.flac:220e5faf11dfd5ef90e79d6fa4081040
phish2009-06-09s1t02.flac:b8257facadadd95fb5206d5b0d15496d
phish2009-06-09s1t03.flac:07c3dfc826b375a03296e9384d388399
phish2009-06-09s1t04.flac:fff61e0ce9ed3736e4bdcd3653181d76
phish2009-06-09s1t05.flac:23454b62646f23c427e6ace800e4233c
phish2009-06-09s1t06.flac:1a79c2dabc17a253e00f7e1d56dad466
phish2009-06-09s1t07.flac:5e6c5d128cfc426a3efe11f520e99f38
phish2009-06-09s1t08.flac:257269314560a03fb051197968e5ce37
phish2009-06-09s1t09.flac:3f7a4df506203eb2dbc231e5b26a7bd4
phish2009-06-09s1t10.flac:7fce8d6d0f4cf09183bb4f0aa87cc1d8
phish2009-06-09s1t11.flac:58f0334d3f777059cde023488290aed4
phish2009-06-09s1t12.flac:00e34d2e158777e2cf1f0c124118d7a4
phish2009-06-09s2t01.flac:483024331d7165dc9a43c02a19c62830
phish2009-06-09s2t02.flac:da06ef4e7e57639f515d3da1c20db80a
phish2009-06-09s2t03.flac:05623014c910820c8cfafdc6a5f7bc9a
phish2009-06-09s2t04.flac:fe08e3696f94c0175fed262e64387539
phish2009-06-09s2t05.flac:8e5b0854dbc0b21ae63baa5875c48ed2
phish2009-06-09s2t06.flac:7923cd0e0257bd2d4e34e5a51a0bc1c7
phish2009-06-09s2t07.flac:5b120054314372258d57195e8fb8d84a
phish2009-06-09s2t08.flac:d061ba63554fcf78eec8c864f255cb7f
phish2009-06-09s2t09.flac:6b049b030c005ebcf56dda7b391ce966
phish2009-06-09s2t10.flac:592eeb0c3afa258514d1c44b69d56dce
phish2009-06-09s2t11.flac:f536112032fe9ef02ad63e922a336082

Comments
Add Comment
Other Sources (comments)
(FOB) DPA... (0) Peluso cemc6/ck41 > Edirol... (0) Audix m1280/HC > Lunatec V2... (0) AKG 480/ck63 > Lunatec V3... (0) (FOB) Neumann... (0) (FOB) [Schoeps mk41v > kc5... (0) (FOB) Schoeps CCM 4 Lg... (0) Neumann km150's > Sound... (0) Busman Audio bsc1-k3 > tmod... (0) AKG 483 > Lunatec V3 >... (0) [Neumann ak40 > lc3 > km100... (0) FOB [Schoeps mk41v > kc5 >... (0) (FOB) Schoeps MK4 > KC5 >... (0) (FOB) Schoeps mk22 > KCY >... (0) DPA 4022 (FOB, DFC, 6' up,... (0) Schoeps mk41... (0)
Date User Comment