Browse Collections Artists Sources   Search Dates

Add Show    List Management    Help


Derek Trucks Band 06/09/09
Royal Oak Music Theatre, Royal Oak, MI
Comments Add Comment    Source Collectors    Add to Collection    Add to Want List    History
Source # 99450 Other Sources
Entered by Steve Blanchard
Checksums ffp
Disc Counts 1 / 2
Media Size
Date Circulated
Date Added
06/10/2009
06/10/2009
Source Summary Schoeps CCM4V'S(din)>Lunatec V2>Sound Devices 722 (24/48), Location: FOB/DFC/KFC/ZFC/AARP 30' From Stage, 7' High, DSP: Sound Devices 722>Sound Forge 9.0>CD Wave>flac(16), Recorded By: Z-Man 
Source Information - Download Text | Download Zip
Derek Trucks Band
Royal Oak Music Theatre
Royal Oak, Michigan
6/9/2009

Source: Schoeps CCM4V'S(din)>Lunatec V2>Sound Devices 722 (24/48)
Location: FOB/DFC/KFC/ZFC/AARP 30' From Stage, 7' High
DSP: Sound Devices 722>Sound Forge 9.0>CD Wave>flac(16)
Recorded By: Z-Man
Seeded By: Z-Man

Disc I

01 Key To The Highway
02 I Know >
03 Sweet Inspiration
04 Down In The Flood
05 Don't Bother Me
06 Band Introductions
07 Don't Go
08 So Close, So Far >
09 Already Free >
10 Leavin' Trunk >
11 Joyful Noise

Disc II

01 Meet Me At The Bottom
02 We're A Winner
03 Afro Blue
Encore:
04 Crow Jane >
05 Feel So Bad

Flac fingerprint

dtb2009-06-09d01t01.flac:c3acedb7d9b8a9993bef3a0cdee328ec
dtb2009-06-09d01t02.flac:bd6145ca90351a7fffe8d1cedff91d57
dtb2009-06-09d01t03.flac:3e9efdce38a7aab444a75c4c3605f7e7
dtb2009-06-09d01t04.flac:41e517909d3df834af26f8a7ca487442
dtb2009-06-09d01t05.flac:d6fd5eac0aa7e49f742108452d71246e
dtb2009-06-09d01t06.flac:7b9e1df87c5b1e6124c6c66b56223c30
dtb2009-06-09d01t07.flac:18a8a2d9d15a3c7f0166f2555641562a
dtb2009-06-09d01t08.flac:1d4fbb6ebcc76099f885f19e009cfa1d
dtb2009-06-09d01t09.flac:968787f651cb52a8602fbe4e58588f3b
dtb2009-06-09d01t10.flac:fc9fdab546a6a96ec38c9896ccb04f25
dtb2009-06-09d01t11.flac:6dfc54aafe8da0b0aeaa6ec6bd69fc18
dtb2009-06-09d02t01.flac:7ca01ac653ffdaeaa7f4a3100ab703e7
dtb2009-06-09d02t02.flac:2ecb1c988af9b632d7b5c7f0814b1134
dtb2009-06-09d02t03.flac:4facf55033bc382f9f75a17fd380359e
dtb2009-06-09d02t04.flac:ef524d331cc8e6bd2bd49aa88cefc978
dtb2009-06-09d02t05.flac:e1f9b65a5428c11985c4cecae49db40a

shntool

length expanded size cdr WAVE problems fmt ratio filename
7:07.74 75496892 B --- -- ---xx flac 0.5635 dtb2009-06-09d01t01.flac
6:33.43 69426380 B --- -- ---xx flac 0.5504 dtb2009-06-09d01t02.flac
6:51.26 72561596 B --- -- ---xx flac 0.5796 dtb2009-06-09d01t03.flac
6:55.12 73234268 B --- -- ---xx flac 0.5903 dtb2009-06-09d01t04.flac
5:52.19 62137532 B --- -- ---xx flac 0.6052 dtb2009-06-09d01t05.flac
1:09.04 12181052 B --- -- ---xx flac 0.5244 dtb2009-06-09d01t06.flac
6:45.70 71606684 B --- -- ---xx flac 0.5891 dtb2009-06-09d01t07.flac
6:04.13 64240220 B --- -- ---xx flac 0.5502 dtb2009-06-09d01t08.flac
5:37.04 59456252 B --- -- ---xx flac 0.4877 dtb2009-06-09d01t09.flac
7:30.46 79488236 B --- -- ---xx flac 0.5816 dtb2009-06-09d01t10.flac
7:19.41 77536076 B --- -- ---xx flac 0.6169 dtb2009-06-09d01t11.flac
6:45.02 71446748 B --- -- ---xx flac 0.5884 dtb2009-06-09d02t01.flac
8:52.37 93931868 B --- -- ---xx flac 0.5858 dtb2009-06-09d02t02.flac
13:28.40 142625324 B --- -- ---xx flac 0.5348 dtb2009-06-09d02t03.flac
7:46.47 82312988 B --- -- ---xx flac 0.5403 dtb2009-06-09d02t04.flac
8:53.10 94044764 B --- -- ---xx flac 0.5517 dtb2009-06-09d02t05.flac
113:32.38 1201726880 B 0.5661 (16 files)
Show Checksums
ffp
dtb2009-06-09d01t01.flac:c3acedb7d9b8a9993bef3a0cdee328ec
dtb2009-06-09d01t02.flac:bd6145ca90351a7fffe8d1cedff91d57
dtb2009-06-09d01t03.flac:3e9efdce38a7aab444a75c4c3605f7e7
dtb2009-06-09d01t04.flac:41e517909d3df834af26f8a7ca487442
dtb2009-06-09d01t05.flac:d6fd5eac0aa7e49f742108452d71246e
dtb2009-06-09d01t06.flac:7b9e1df87c5b1e6124c6c66b56223c30
dtb2009-06-09d01t07.flac:18a8a2d9d15a3c7f0166f2555641562a
dtb2009-06-09d01t08.flac:1d4fbb6ebcc76099f885f19e009cfa1d
dtb2009-06-09d01t09.flac:968787f651cb52a8602fbe4e58588f3b
dtb2009-06-09d01t10.flac:fc9fdab546a6a96ec38c9896ccb04f25
dtb2009-06-09d01t11.flac:6dfc54aafe8da0b0aeaa6ec6bd69fc18
dtb2009-06-09d02t01.flac:7ca01ac653ffdaeaa7f4a3100ab703e7
dtb2009-06-09d02t02.flac:2ecb1c988af9b632d7b5c7f0814b1134
dtb2009-06-09d02t03.flac:4facf55033bc382f9f75a17fd380359e
dtb2009-06-09d02t04.flac:ef524d331cc8e6bd2bd49aa88cefc978
dtb2009-06-09d02t05.flac:e1f9b65a5428c11985c4cecae49db40a

Comments
Add Comment
Other Sources (comments)
Microtec Gefell SMS 210 >... (0)
Date User Comment