Browse Collections Artists Sources   Search Dates

Add Show    List Management    Help


Phish 06/09/09
Asheville Civic Center, Asheville, NC
Comments Add Comment    Source Collectors    Add to Collection    Add to Want List    History
Source # 99451 Other Sources
Entered by Jason Sobel
Checksums 16bit-FFP
Disc Counts 2 / 3
Media Size
Date Circulated
Date Added
06/10/2009
06/10/2009
Source Summary AKG 480/ck63 > Lunatec V3 (analog) > Sound Devices 722 > Edirol R-44 (@ 24/48); SDHC card > wavelab 5.01b (fades, resample/dither to 16 bit / 44.1 kHz) > cd wave > traders little helper (flac level 8); Taped by TaperBryan & Gordon Wilson; Transferred by Gordon Wilson 
Source Information - Download Text | Download Zip
Phish
06/09/2009
Asheville Civic Center
Asheville,NC

source: AKG 480/ck63 (dina) > Lunatec V3 (analog) > Sound Devices 722 > coax > Edirol R-44 @ 24/48
location: OTS DFC
transfer: SDHC card > PC > wavelab 5.01b > cd wave > traders little helper (flac level 8)

all editing (fades at beginning and end of sets, resampled w/ resampler 192, dither w/ iZotope Ozone 3) done in wavelab 5.01b

*16bit/44.1khz fileset*

recorded by TaperBryan & Gordon Wilson
transfered by Gordon Wilson

set one:

01. Intro
02. Kill Devil Falls
03. Moma Dance ->
04. Sample In A Jar
05. Stash
06. Dog Faced Boy
07. Gumbo
08. Tube
09. Lengthwise
10. Divided Sky
11. When The Cactus Is In Bloom *
12. Axis: Bold As Love


set two;

01. Intro
02. Backwards Down The Number Line ->
03. Ghost->
04. Fast Enough For You
05. Halley's Comet ->
06. Maze
07. Alaska
08. Theme From The Bottom
09. Golgi Apparatus
10. Possum

encore:
11. Loving Cup

* First Time Played
suggested disc split for set two is after track 8

shntool 3.0.4
Copyright (C) 2000-2007 Jason Jordan

length expanded size cdr WAVE problems fmt ratio filename
1:21.31 14361356 B --- -- ---xx flac 0.5211 phish2009-06-09s1t01.flac
8:53.71 94188236 B --- -- ---xx flac 0.5982 phish2009-06-09s1t02.flac
7:26.61 78817916 B --- -- ---xx flac 0.5869 phish2009-06-09s1t03.flac
6:22.53 67509500 B --- -- ---xx flac 0.5696 phish2009-06-09s1t04.flac
14:09.65 149916524 B --- -- ---xx flac 0.5447 phish2009-06-09s1t05.flac
3:13.68 34205180 B --- -- ---xx flac 0.4432 phish2009-06-09s1t06.flac
4:53.54 51812252 B --- -- ---xx flac 0.5642 phish2009-06-09s1t07.flac
7:00.60 74229164 B --- -- ---xx flac 0.5787 phish2009-06-09s1t08.flac
1:04.32 11364908 B --- -- ---xx flac 0.4585 phish2009-06-09s1t09.flac
14:49.37 156906668 B --- -- ---xx flac 0.5609 phish2009-06-09s1t10.flac
3:18.14 34960172 B --- -- ---xx flac 0.5587 phish2009-06-09s1t11.flac
5:48.59 61526012 B --- -- ---xx flac 0.6026 phish2009-06-09s1t12.flac
1:19.44 14039132 B --- -- ---xx flac 0.4333 phish2009-06-09s2t01.flac
8:53.05 94033004 B --- -- ---xx flac 0.5842 phish2009-06-09s2t02.flac
15:16.47 161692988 B --- -- ---xx flac 0.5873 phish2009-06-09s2t03.flac
8:13.05 86977004 B --- -- ---xx flac 0.5335 phish2009-06-09s2t04.flac
6:12.55 65750204 B --- -- ---xx flac 0.5772 phish2009-06-09s2t05.flac
11:28.09 121384412 B --- -- ---xx flac 0.5971 phish2009-06-09s2t06.flac
9:49.53 104024300 B --- -- ---xx flac 0.5659 phish2009-06-09s2t07.flac
8:27.53 89559500 B --- -- ---xx flac 0.5643 phish2009-06-09s2t08.flac
4:41.04 49577852 B --- -- ---xx flac 0.5835 phish2009-06-09s2t09.flac
12:04.32 127788908 B --- -- ---xx flac 0.5611 phish2009-06-09s2t10.flac
8:02.74 85198892 B --- -- ---xx flac 0.5908 phish2009-06-09s2t11.flac
172:53.11 1829824084 B 0.5687 (23 files)
Show Checksums
16bit-FFP
phish2009-06-09s1t01.flac:1da41a2316c99c7c06e5bcd7700c2e10
phish2009-06-09s1t02.flac:b63f0d95e9ab997c61da70d6baef91d0
phish2009-06-09s1t03.flac:b612c08114b9a4782c18e1aae90467f2
phish2009-06-09s1t04.flac:4d11ef09548ed5e3a27e6114bcee95a5
phish2009-06-09s1t05.flac:fd91829ba2677030eb33a7cfea239dfb
phish2009-06-09s1t06.flac:7178a838c6f61a0467fc91c6b028913c
phish2009-06-09s1t07.flac:55d0ccb113c30627730837fe08ee1123
phish2009-06-09s1t08.flac:9282d471ae634158943ee0fe9761ad7e
phish2009-06-09s1t09.flac:18c61b378c0622c1e13adee7ae127986
phish2009-06-09s1t10.flac:4f1320e761b25e635d76b45c4ef5e495
phish2009-06-09s1t11.flac:bc5c50e9e0b88ef5a403f82248cbc36a
phish2009-06-09s1t12.flac:f20028c01852d5b081c1e412d7ad5a81
phish2009-06-09s2t01.flac:dc539457380ab4daee93ef7b0441abb5
phish2009-06-09s2t02.flac:0e58d5cf6c6a3aa05172ff4ad7532466
phish2009-06-09s2t03.flac:35362988aae13a3b9d53c28deeb22434
phish2009-06-09s2t04.flac:5411e778e31db7faecea3663b5e847ee
phish2009-06-09s2t05.flac:0c8b32e474d7c6336a920f1f6ede3d71
phish2009-06-09s2t06.flac:57c52bedc43e2e838a7ea1629b29565f
phish2009-06-09s2t07.flac:68e88fe4fa7d6e5270f2a3d86e0d0d2f
phish2009-06-09s2t08.flac:74a7ccdceaa201d33b72240d6e013525
phish2009-06-09s2t09.flac:3a321b11baa2130b332b037e225b8a32
phish2009-06-09s2t10.flac:ee7259453f12c7fa1af1743704a3f960
phish2009-06-09s2t11.flac:69bf5f85e10b366bb657bd747c70470c

Comments
Add Comment
Other Sources (comments)
(FOB) DPA... (0) Peluso cemc6/ck41 > Edirol... (0) Neumann ak40 > lc3 > km100... (0) Audix m1280/HC > Lunatec V2... (0) (FOB) Neumann... (0) (FOB) [Schoeps mk41v > kc5... (0) (FOB) Schoeps CCM 4 Lg... (0) Neumann km150's > Sound... (0) Busman Audio bsc1-k3 > tmod... (0) AKG 483 > Lunatec V3 >... (0) [Neumann ak40 > lc3 > km100... (0) FOB [Schoeps mk41v > kc5 >... (0) (FOB) Schoeps MK4 > KC5 >... (0) (FOB) Schoeps mk22 > KCY >... (0) DPA 4022 (FOB, DFC, 6' up,... (0) Schoeps mk41... (0)
Date User Comment