Browse Collections Artists Sources   Search Dates

Add Show    List Management    Help


Derek Trucks Band 05/31/09
Hunter Mountain, Hunter, NY
Comments Add Comment    Source Collectors    Add to Collection    Add to Want List    History
Source # 99483 Other Sources
Entered by Steve Blanchard
Checksums ffp
Disc Counts 1 / 1
Media Size
Date Circulated
Date Added

06/12/2009
Source Summary Schoeps CCM4V'S(din) > Lunatec V2 > Benchmark AD2K > Sound Devices 722 (24/48), Location: FOB/DFC/KFC/ZFC/AARP 50' From Stage, 6' High, DSP: Sound Devices 722 > Sound Forge 9.0 > CD Wave > flac(16), Recorded By: Z-Man 
Source Information - Download Text | Download Zip
Derek Trucks Band
Mountain Jam
Hunter Mountain, New York
5/31/2009

Source: Schoeps CCM4V'S(din)>Lunatec V2>Benchmark AD2K>
Sound Devices 722 (24/48)
Location: FOB/DFC/KFC/ZFC/AARP 50' From Stage, 6' High
DSP: Sound Devices 722>Sound Forge 9.0>CD Wave>flac(16)
Recorded By: Z-Man
Seeded By: Z-Man

Disc I

01 Introduction
02 Down In The Flood
03 Trouble Don't Get Lost On Me
04 I Spend My Time Lovin' You
05 Meet Me At The Bottom
06 Band Introductions
07 Nothing Changes >
08 Sweet Inspiration
09 Percussion >
10 Favorite Things
11 Move It On Up
12 Get Out Of My Life Woman

Show Notes: I was taping way down FOB. During the last song, the head of Security came and got in my face. He screamed at me to "pack up your effin' gear and get #@!*! in the back"! I tore down and hand held for the last 5-6 minutes as I made my way laterally.

Flac fingerprint

dtb2009-05-31d01t01.flac:a4db5d1fac9c1909cdda53a3db6ec36d
dtb2009-05-31d01t02.flac:b5c0584687c47056e3bb66ddab12e01c
dtb2009-05-31d01t03.flac:cc84879482f44a0c3769dd7871f8a694
dtb2009-05-31d01t04.flac:86b4c4f46d411ff18acd8c630c63ecd3
dtb2009-05-31d01t05.flac:cdbe4acb22d7649ba2dfc5a6adda7173
dtb2009-05-31d01t06.flac:684a7856e7d36cf554a1fd1cdd4ac7a3
dtb2009-05-31d01t07.flac:d39e6b401b19b1962bcd36b5cb8d0278
dtb2009-05-31d01t08.flac:e8d0fdd7bc153a09b760fe5d3f75ff00
dtb2009-05-31d01t09.flac:07aba8996fcf22cd3e10d45cdc883b49
dtb2009-05-31d01t10.flac:8b80a5ee9ff8380d63b6f76416f6ce43
dtb2009-05-31d01t11.flac:e4ab8f9b23fc07a4a84b7cfe6caff40b
dtb2009-05-31d01t12.flac:b3cd618f9e1fbedbe1ba1260cc4f4eb5

shntool

    length     expanded size    cdr  WAVE problems  fmt   ratio  filename
     0:37.01        6529196 B   ---   --   ---xx   flac  0.3466  dtb2009-05-31d01t01.flac
     6:38.18       70249580 B   ---   --   ---xx   flac  0.4883  dtb2009-05-31d01t02.flac
     5:59.17       63367628 B   ---   --   ---xx   flac  0.5018  dtb2009-05-31d01t03.flac
     7:18.33       77340860 B   ---   --   ---xx   flac  0.4501  dtb2009-05-31d01t04.flac
     4:48.69       50965532 B   ---   --   ---xx   flac  0.5172  dtb2009-05-31d01t05.flac
     0:36.64        6500972 B   ---   --   ---xx   flac  0.3803  dtb2009-05-31d01t06.flac
     6:42.22       70964588 B   ---   --   ---xx   flac  0.4786  dtb2009-05-31d01t07.flac
     6:05.35       64468364 B   ---   --   ---xx   flac  0.5031  dtb2009-05-31d01t08.flac
     0:57.72       10224188 B   ---   --   ---xx   flac  0.3358  dtb2009-05-31d01t09.flac
    12:30.23      132354140 B   ---   --   ---xx   flac  0.4793  dtb2009-05-31d01t10.flac
     5:10.18       54726380 B   ---   --   ---xx   flac  0.5039  dtb2009-05-31d01t11.flac
    11:38.38      123216620 B   ---   --   ---xx   flac  0.4629  dtb2009-05-31d01t12.flac
    69:03.35      730908048 B                            0.4787  (12 files)


Show Checksums
ffp
dtb2009-05-31d01t01.flac:a4db5d1fac9c1909cdda53a3db6ec36d
dtb2009-05-31d01t02.flac:b5c0584687c47056e3bb66ddab12e01c
dtb2009-05-31d01t03.flac:cc84879482f44a0c3769dd7871f8a694
dtb2009-05-31d01t04.flac:86b4c4f46d411ff18acd8c630c63ecd3
dtb2009-05-31d01t05.flac:cdbe4acb22d7649ba2dfc5a6adda7173
dtb2009-05-31d01t06.flac:684a7856e7d36cf554a1fd1cdd4ac7a3
dtb2009-05-31d01t07.flac:d39e6b401b19b1962bcd36b5cb8d0278
dtb2009-05-31d01t08.flac:e8d0fdd7bc153a09b760fe5d3f75ff00
dtb2009-05-31d01t09.flac:07aba8996fcf22cd3e10d45cdc883b49
dtb2009-05-31d01t10.flac:8b80a5ee9ff8380d63b6f76416f6ce43
dtb2009-05-31d01t11.flac:e4ab8f9b23fc07a4a84b7cfe6caff40b
dtb2009-05-31d01t12.flac:b3cd618f9e1fbedbe1ba1260cc4f4eb5

Comments
Add Comment
Date User Comment