Browse Collections Artists Sources   Search Dates

Add Show    List Management    Help


Phish 06/09/09
Asheville Civic Center, Asheville, NC
Comments Add Comment    Source Collectors    Add to Collection    Add to Want List    History
Source # 99538 Other Sources
Entered by Jason Sobel
Checksums 24bit-FFP , 16bit-FFP
Disc Counts 2 / 3
Media Size
Date Circulated
Date Added
06/15/2009
06/16/2009
Source Summary [Neumann ak40 > lc3 > km100 > Lunatec V3 (analog) > Edirol R-44 @ 24/48] + [AKG 480/ck63 > Lunatec V3 > Sound Devices 722 > Edirol R-44 @ 24/48]; SDHC card > wavelab 5.01b (matrix, fades) > cd wave > traders little helper (flac level 8); Taped by TaperBryan & Gordon Wilson; Transferred by Gordon Wilson (NOTE: both 16 bit & 24 bit versions are available) 
Source Information - Download Text | Download Zip
-----------------------------------------
----    16 bit / 44.1 kHz version    ----
-----------------------------------------

Phish
06/09/2009
Asheville Civic Center
Asheville,NC

Four Channel Audience Matrix

source one: Neumann ak40 > lc3 > km100 (din) > Lunatec V3 (analog) > Edirol R-44 @ 24/48
source two: AKG 480/ck63 (dina) > Lunatec V3 (analog) > Sound Devices 722 > coax > Edirol R-44 @ 24/48
location: OTS,DFC

source one recorded by Gordon Wilson
source two recorded by TaperBryan & Gordon Wilson

transfer: SDHC card > PC > wavelab 5.01b > cd wave > traders little helper (flac level 8)

all editing (matrix, resampled w/ resampler 192, dither w/ iZotope Ozone 3) done in wavelab 5.01b

*16bit/44.1khz fileset*

recorded and transferred by Gordon Wilson

set one:

01. Intro
02. Kill Devil Falls
03. Moma Dance ->
04. Sample In A Jar
05. Stash
06. Dog Faced Boy
07. Gumbo
08. Tube
09. Lengthwise
10. Divided Sky
11. When The Cactus Is In Bloom *
12. Axis: Bold As Love


set two:

01. Intro
02. Backwards Down The Number Line ->
03. Ghost->
04. Fast Enough For You
05. Halley's Comet ->
06. Maze
07. Alaska
08. Theme From The Bottom
09. Golgi Apparatus
10. Possum

encore:
11. Loving Cup

* First Time Played
suggested disc split for set two is after track 8

shntool 3.0.4
Copyright (C) 2000-2007 Jason Jordan

length expanded size cdr WAVE problems fmt ratio filename
1:21.31 14361356 B --- -- ---xx flac 0.5359 phish2009-06-09s1t01.flac
8:53.71 94188236 B --- -- ---xx flac 0.6115 phish2009-06-09s1t02.flac
7:27.06 78864956 B --- -- ---xx flac 0.6068 phish2009-06-09s1t03.flac
6:22.33 67462460 B --- -- ---xx flac 0.5913 phish2009-06-09s1t04.flac
14:09.65 149916524 B --- -- ---xx flac 0.5698 phish2009-06-09s1t05.flac
3:13.68 34205180 B --- -- ---xx flac 0.4709 phish2009-06-09s1t06.flac
4:53.54 51812252 B --- -- ---xx flac 0.5875 phish2009-06-09s1t07.flac
7:00.60 74229164 B --- -- ---xx flac 0.6017 phish2009-06-09s1t08.flac
1:04.32 11364908 B --- -- ---xx flac 0.4856 phish2009-06-09s1t09.flac
14:49.37 156906668 B --- -- ---xx flac 0.5840 phish2009-06-09s1t10.flac
3:18.14 34960172 B --- -- ---xx flac 0.5821 phish2009-06-09s1t11.flac
5:54.46 62553836 B --- -- ---xx flac 0.6210 phish2009-06-09s1t12.flac
1:31.06 16066556 B --- -- ---xx flac 0.4614 phish2009-06-09s2t01.flac
8:54.15 94232924 B --- -- ---xx flac 0.6055 phish2009-06-09s2t02.flac
15:15.55 161535404 B --- -- ---xx flac 0.6079 phish2009-06-09s2t03.flac
8:12.58 86925260 B --- -- ---xx flac 0.5586 phish2009-06-09s2t04.flac
6:13.01 65799596 B --- -- ---xx flac 0.6006 phish2009-06-09s2t05.flac
11:27.63 121335020 B --- -- ---xx flac 0.6183 phish2009-06-09s2t06.flac
9:49.57 104033708 B --- -- ---xx flac 0.5877 phish2009-06-09s2t07.flac
8:27.46 89543036 B --- -- ---xx flac 0.5859 phish2009-06-09s2t08.flac
4:41.00 49568444 B --- -- ---xx flac 0.6061 phish2009-06-09s2t09.flac
12:04.61 127857116 B --- -- ---xx flac 0.5846 phish2009-06-09s2t10.flac
8:03.00 85201244 B --- -- ---xx flac 0.6110 phish2009-06-09s2t11.flac
173:10.54 1832924020 B 0.5904 (23 files)









---------------------------------------
----    24 bit / 48 kHz version    ----
---------------------------------------

Phish
06/09/2009
Asheville Civic Center
Asheville,NC

Four Channel Audience Matrix

source one:  Neumann ak40 > lc3 > km100 (din) > Lunatec V3 (analog) > Edirol R-44 @ 24/48
source two:  AKG 480/ck63 (dina) > Lunatec V3 (analog) > Sound Devices 722 > coax > Edirol R-44 @ 24/48
location:    OTS,DFC

source one recorded by Gordon Wilson
source two recorded by TaperBryan & Gordon Wilson

transfer: SDHC card > PC > wavelab 5.01b (matrix,fades) > cd wave > traders little helper (flac level 8)

transferred by Gordon Wilson

*24bit/48khz fileset*

set one:

01. Intro
02. Kill Devil Falls
03. Moma Dance ->
04. Sample In A Jar
05. Stash
06. Dog Faced Boy
07. Gumbo
08. Tube
09. Lengthwise
10. Divided Sky
11. When The Cactus Is In Bloom *
12. Axis: Bold As Love


set two:

01. Intro
02. Backwards Down The Number Line ->
03. Ghost->
04. Fast Enough For You
05. Halley's Comet ->
06. Maze
07. Alaska
08. Theme From The Bottom
09. Golgi Apparatus
10. Possum

encore:
11. Loving Cup

* First Time Played
Show Checksums
24bit-FFP
phish2009-06-09s1t01.flac:f08016fcee5351607e4d5dd0b730a9c4
phish2009-06-09s1t02.flac:cc3b5c1d9639bb177696f86f99c27e44
phish2009-06-09s1t03.flac:2749f3bf4cdcc5dac8cab6f1ddcea39f
phish2009-06-09s1t04.flac:1ae51be872b6aa1ea678b195ccbe5611
phish2009-06-09s1t05.flac:9f2d91c753fdf4069158ff4e4ac62341
phish2009-06-09s1t06.flac:e72670eb016f5ca4d3d7e0c3dee3ab5d
phish2009-06-09s1t07.flac:51662d2cd8d9d476e25c79898988a40e
phish2009-06-09s1t08.flac:9c752e43d01ea7eed5bbd6b29002a4a3
phish2009-06-09s1t09.flac:462144f6d347be3a19c385bafaef4f0b
phish2009-06-09s1t10.flac:e78dfaf1e667bc487c140cb1df594b78
phish2009-06-09s1t11.flac:d796d66b5ab4532c62b78ae931ece3b2
phish2009-06-09s1t12.flac:fe8fbd7d98c4c467a73d547392224ac3
phish2009-06-09s2t01.flac:84b960ad0cf7b81e40174cae9cae6567
phish2009-06-09s2t02.flac:56b2dcc25ee919d70759d165c69b4de7
phish2009-06-09s2t03.flac:bd3335653175a4feba47e0f3a0dd5235
phish2009-06-09s2t04.flac:538c4161df9a70b907f230919545cb64
phish2009-06-09s2t05.flac:854985db6e8a3b792082f746f6385d05
phish2009-06-09s2t06.flac:d53f70234432b3924d374caf9574daf4
phish2009-06-09s2t07.flac:3db4d40059fa10b84e7bed12f4706217
phish2009-06-09s2t08.flac:2a0b3289f9a5439d40e7bb4649ebac54
phish2009-06-09s2t09.flac:053d0bcbbb369613a82ae4a735c84698
phish2009-06-09s2t10.flac:a6383cfe888fbf9a8858ed141c613a33
phish2009-06-09s2t11.flac:65d67832b6cabe816f53a9f36b84d942
16bit-FFP
phish2009-06-09s1t01.flac:c992970ae8aa45b9506587297ffccb34
phish2009-06-09s1t02.flac:0c57a8c5b6af7f5822c46041c2aa835a
phish2009-06-09s1t03.flac:1689f81a77c63bbe93d9f846d226d601
phish2009-06-09s1t04.flac:5350dfe034026c94c20b66f0b15e2ede
phish2009-06-09s1t05.flac:8a8113f37d302024bb7da548404e1138
phish2009-06-09s1t06.flac:5b93097f23a328a875cd5ead68de55b5
phish2009-06-09s1t07.flac:b52582cf37d92aa35c4cb6b8dbf45ab0
phish2009-06-09s1t08.flac:693aa50d699cf390ed4a541550e599c7
phish2009-06-09s1t09.flac:78f240008bc1215d0b66056e1653fd58
phish2009-06-09s1t10.flac:cdfd5e6d2eb646e4243d0559ed04db2a
phish2009-06-09s1t11.flac:1eaae892f83a3e39376229aa582f88ea
phish2009-06-09s1t12.flac:b806b1e686911fa290bfeff90fb23ecd
phish2009-06-09s2t01.flac:31e2a08dd70953bd6966bea300d2d8ee
phish2009-06-09s2t02.flac:ff4ca36060b2b53ece8db8638685a5fd
phish2009-06-09s2t03.flac:a93348a1f5d3110fe95eb18ebb7f015c
phish2009-06-09s2t04.flac:6b885faec3302da199fd623213887d37
phish2009-06-09s2t05.flac:a5c24c672fdd6854183489be441bd832
phish2009-06-09s2t06.flac:e8a5a0d7f35d5d1c008f71373edb043b
phish2009-06-09s2t07.flac:f6ff68dbad03fa169d02a2ae9abdd92f
phish2009-06-09s2t08.flac:9743553a686becdeb1e67f7cf31c5c9c
phish2009-06-09s2t09.flac:d7d16af45576eaaccf40843c4096749b
phish2009-06-09s2t10.flac:c4367c8dd04612129a1070db29de32c7
phish2009-06-09s2t11.flac:7defd62c2e612fd9a5a389981cace0ab

Comments
Add Comment
Other Sources (comments)
(FOB) DPA... (0) Peluso cemc6/ck41 > Edirol... (0) Neumann ak40 > lc3 > km100... (0) Audix m1280/HC > Lunatec V2... (0) AKG 480/ck63 > Lunatec V3... (0) (FOB) Neumann... (0) (FOB) [Schoeps mk41v > kc5... (0) (FOB) Schoeps CCM 4 Lg... (0) Neumann km150's > Sound... (0) Busman Audio bsc1-k3 > tmod... (0) AKG 483 > Lunatec V3 >... (0) FOB [Schoeps mk41v > kc5 >... (0) (FOB) Schoeps MK4 > KC5 >... (0) (FOB) Schoeps mk22 > KCY >... (0) DPA 4022 (FOB, DFC, 6' up,... (0) Schoeps mk41... (0)
Date User Comment