Browse Collections Artists Sources   Search Dates

Add Show    List Management    Help


Derek Trucks Band 06/11/09
Embassy Theatre, Fort Wayne, IN
Comments Add Comment    Source Collectors    Add to Collection    Add to Want List    History
Source # 99782 Other Sources
Entered by Steve Blanchard
Checksums ffp
Disc Counts 1 / 2
Media Size
Date Circulated
Date Added
06/12/2009
06/25/2009
Source Summary Source: Schoeps CCM4V'S(din)>Lunatec V2>Sound Devices 722 (24/48), Location: FOB/DFC/KFC/ZFC/AARP Section B, Row J, Seat 5, 6' High, DSP: Sound Devices 722>Sound Forge 9.0>CD Wave>flac(16), Recorded By: Z-Man 
  Archive
Source Information - Download Text | Download Zip
Derek Trucks Band
Embassy Theatre
Fort Wayne, Indiana
6/11/2009

Source: Schoeps CCM4V'S(din)>Lunatec V2>Sound Devices 722 (24/48)
Location: FOB/DFC/KFC/ZFC/AARP Section B, Row J, Seat 5, 6' High
DSP: Sound Devices 722>Sound Forge 9.0>CD Wave>flac(16)
Recorded By: Z-Man
Seeded By: Z-Man

Disc I

01 Introduction
02 Key To The Highway
03 I Know >
04 Death Don't Bother
05 Leavin' Trunk
06 Band Introductions
07 Sweet Inspiration
08 Mahjoun
09 Don't Miss Me >
10 We're A Winner
11 Blind, Crippled, and Crazy

Disc II

01 Down In The Flood
02 Percussion Solo >
03 My Favorite Things >
04 The Sky >
05 My Favorite things
Encore:
06 Done Got Over

Flac fingerprint

dtb2009-06-11d01t01.flac:006709558c97b6e08bcc898d187c45c5
dtb2009-06-11d01t02.flac:971fdfed8163cff153540f620096ed3e
dtb2009-06-11d01t03.flac:1da9fa8c070b4b02f2c704c752fe0e9b
dtb2009-06-11d01t04.flac:14116f0fc18356b342839ca52e3bb7d5
dtb2009-06-11d01t05.flac:d46cee4dedee5685fca170451f92e316
dtb2009-06-11d01t06.flac:a0d6ddce2fd3d34995286bf3799e0ac1
dtb2009-06-11d01t07.flac:571105c85d0ca02e079b49315b7fe730
dtb2009-06-11d01t08.flac:a640551f9fc29c898040d362d0e37a61
dtb2009-06-11d01t09.flac:d825d962d57c9e1f2f4848754e19e179
dtb2009-06-11d01t10.flac:a118250c70b6ce657187092fb2af66e8
dtb2009-06-11d01t11.flac:aad03228e392271b4556284fd99ceaa4
dtb2009-06-11d02t01.flac:b3dc1926b3b7e4ee3c0ef89db0f0037d
dtb2009-06-11d02t02.flac:44cd3bb4849408e1afd9abeea490c540
dtb2009-06-11d02t03.flac:06198aec6e063ea9ead0b6d1fe8ddd36
dtb2009-06-11d02t04.flac:2ebc43b19f625a581e60d42b12d3cf8a
dtb2009-06-11d02t05.flac:dfc6f9a59a793ff5941065efa6081ee1
dtb2009-06-11d02t06.flac:f3021f948f21f03fd80eae12ed9d21ef


shntool

length expanded size cdr WAVE problems fmt ratio filename
0:52.34 9252812 B --- -- ---xx flac 0.4743 dtb2009-06-11d01t01.flac
6:28.48 68556140 B --- -- ---xx flac 0.5246 dtb2009-06-11d01t02.flac
6:57.39 73650572 B --- -- ---xx flac 0.4870 dtb2009-06-11d01t03.flac
5:18.35 56177564 B --- -- ---xx flac 0.5344 dtb2009-06-11d01t04.flac
8:42.63 92229020 B --- -- ---xx flac 0.5314 dtb2009-06-11d01t05.flac
0:37.19 6571532 B --- -- ---xx flac 0.4567 dtb2009-06-11d01t06.flac
6:18.25 66738044 B --- -- ---xx flac 0.5248 dtb2009-06-11d01t07.flac
4:04.68 43201580 B --- -- ---xx flac 0.4134 dtb2009-06-11d01t08.flac
5:26.28 57572300 B --- -- ---xx flac 0.4761 dtb2009-06-11d01t09.flac
7:17.30 77157404 B --- -- ---xx flac 0.5149 dtb2009-06-11d01t10.flac
6:52.25 72735644 B --- -- ---xx flac 0.4967 dtb2009-06-11d01t11.flac
6:57.12 73587068 B --- -- ---xx flac 0.5193 dtb2009-06-11d02t01.flac
1:07.17 11858828 B --- -- ---xx flac 0.3647 dtb2009-06-11d02t02.flac
5:01.72 53265788 B --- -- ---xx flac 0.4449 dtb2009-06-11d02t03.flac
5:59.57 63461708 B --- -- ---xx flac 0.4833 dtb2009-06-11d02t04.flac
12:02.56 127492556 B --- -- ---xx flac 0.4930 dtb2009-06-11d02t05.flac
8:23.65 88882124 B --- -- ---xx flac 0.5090 dtb2009-06-11d02t06.flac
98:29.18 1042390684 B 0.4983 (17 files)
Show Checksums
ffp
dtb2009-06-11d01t01.flac:006709558c97b6e08bcc898d187c45c5
dtb2009-06-11d01t02.flac:971fdfed8163cff153540f620096ed3e
dtb2009-06-11d01t03.flac:1da9fa8c070b4b02f2c704c752fe0e9b
dtb2009-06-11d01t04.flac:14116f0fc18356b342839ca52e3bb7d5
dtb2009-06-11d01t05.flac:d46cee4dedee5685fca170451f92e316
dtb2009-06-11d01t06.flac:a0d6ddce2fd3d34995286bf3799e0ac1
dtb2009-06-11d01t07.flac:571105c85d0ca02e079b49315b7fe730
dtb2009-06-11d01t08.flac:a640551f9fc29c898040d362d0e37a61
dtb2009-06-11d01t09.flac:d825d962d57c9e1f2f4848754e19e179
dtb2009-06-11d01t10.flac:a118250c70b6ce657187092fb2af66e8
dtb2009-06-11d01t11.flac:aad03228e392271b4556284fd99ceaa4
dtb2009-06-11d02t01.flac:b3dc1926b3b7e4ee3c0ef89db0f0037d
dtb2009-06-11d02t02.flac:44cd3bb4849408e1afd9abeea490c540
dtb2009-06-11d02t03.flac:06198aec6e063ea9ead0b6d1fe8ddd36
dtb2009-06-11d02t04.flac:2ebc43b19f625a581e60d42b12d3cf8a
dtb2009-06-11d02t05.flac:dfc6f9a59a793ff5941065efa6081ee1
dtb2009-06-11d02t06.flac:f3021f948f21f03fd80eae12ed9d21ef

Comments
Add Comment
Date User Comment