Browse Collections Artists Sources   Search Dates

Add Show    List Management    Help


Grateful Dead 06/24/73
Portland Memorial Coliseum, Portland, OR
Comments Add Comment    Source Collectors    Add to Collection    Add to Want List    History
Source # 99852 Other Sources
Entered by dr.unclear
Checksums flac-md5 , ffp
Disc Counts 2 / 3
Media Size
Date Circulated
Date Added
06/28/2009
06/28/2009
Source Summary flac16; Recording Info: SBD -> Master Reel -> Dat -> CD Transfer Info: CD -> Samplitude Professional v10.02 -> Adobe Audition v1.5 -> FLAC; All Transfers and Mastering By Charlie Miller 
  Archive
Source Information - Download Text | Download Zip
Grateful Dead - June 24, 1973
Memorial Coliseum - Portland, OR

Recording Info:
SBD -> Master Reel -> Dat -> CD

Transfer Info:
CD -> Samplitude Professional v10.02 -> Adobe Audition v1.5 -> FLAC
(3 Discs Audio / 2 Discs FLAC)

All Transfers and Mastering By Charlie Miller
[email protected]
June 3, 2008

Notes:
-- All disc changes are seamless
-- The first few tracks are a mess
-- Thanks to Matt Smith for the discs

Set 1:
d1t01 - Promised Land
d1t02 - Loser
d1t03 - Mexicali Blues
d1t04 - They Love Each Other
d1t05 - Looks Like Rain
d1t06 - Box Of Rain
d1t07 - Big Railroad Blues
d1t08 - Jack Straw
d1t09 - Sugaree
d1t10 - The Race Is On
d1t11 - Row Jimmy
d1t12 - Beat It On Down The Line
d2t01 - China Cat Sunflower ->
d2t02 - I Know You Rider
d2t03 - Around and Around

Set 2:
d2t04 - Mississippi Half-Step Uptown Toodeloo
d2t05 - You Ain't Woman Enough
d2t06 - El Paso
d2t07 - Stella Blue
d2t08 - Greatest Story Ever Told ->
d2t09 - Bertha
d2t10 - Big River
d3t01 - Dark Star ->
d3t02 - Eyes Of The World ->
d3t03 - China Doll
d3t04 - Sugar Magnolia

Encore:
d3t05 - One More Saturday Night


SHNTOOL OUTPUT:
    length     expanded size   cdr  WAVE problems filename
     2:11.14       23141372    ---   --   -----   gd73-06-24d1t01.wav
     7:17.47       77197388    ---   --   -----   gd73-06-24d1t02.wav
     3:40.09       38829212    ---   --   -----   gd73-06-24d1t03.wav
     6:54.02       73034348    ---   --   -----   gd73-06-24d1t04.wav
     8:03.39       85292972    ---   --   -----   gd73-06-24d1t05.wav
     5:37.55       59576204    ---   --   -----   gd73-06-24d1t06.wav
     5:02.25       53331644    ---   --   -----   gd73-06-24d1t07.wav
     6:06.55       64691804    ---   --   -----   gd73-06-24d1t08.wav
     8:10.48       86548940    ---   --   -----   gd73-06-24d1t09.wav
     3:48.72       40388588    ---   --   -----   gd73-06-24d1t10.wav
     9:04.20       96008684    ---   --   -----   gd73-06-24d1t11.wav
     3:41.43       39085580    ---   --   -----   gd73-06-24d1t12.wav
     6:32.19       69193532    ---   --   -----   gd73-06-24d2t01.wav
     4:35.69       48672332    ---   --   -----   gd73-06-24d2t02.wav
     5:35.39       59185772    ---   --   -----   gd73-06-24d2t03.wav
     8:47.21       93012236    ---   --   -----   gd73-06-24d2t04.wav
     3:47.74       40216892    ---   --   -----   gd73-06-24d2t05.wav
     5:18.48       56208140    ---   --   -----   gd73-06-24d2t06.wav
     8:12.20       86835884    ---   --   -----   gd73-06-24d2t07.wav
     5:00.40       53014124    ---   --   -----   gd73-06-24d2t08.wav
     6:54.17       73069628    ---   --   -----   gd73-06-24d2t09.wav
     5:10.06       54698156    ---   --   -----   gd73-06-24d2t10.wav
    27:13.22      288112988    ---   --   -----   gd73-06-24d3t01.wav
    15:02.52      159235148    ---   --   -----   gd73-06-24d3t02.wav
     7:13.17       76421228    ---   --   -----   gd73-06-24d3t03.wav
     9:15.08       97920860    ---   --   -----   gd73-06-24d3t04.wav
     5:12.64       55187372    ---   --   -----   gd73-06-24d3t05.wav
   193:30.45     2048111028 B                     (totals for 27 files)
Show Checksums
flac-md5
4a1d2f1ebf565380960bd3245a754d19 *gd73-06-24d1t01.flac
e1475c4c9de9fd91ca9fb28838ac266a *gd73-06-24d1t02.flac
f32a2fd13be5a6b7d764fed3e75bacec *gd73-06-24d1t03.flac
2cd87212e1e69b997969320b9ba6a99c *gd73-06-24d1t04.flac
d4ec9fa5cbcfe0a047f142bbc8894f42 *gd73-06-24d1t05.flac
e7d663f190d6b24b17e7b7f27728267c *gd73-06-24d1t06.flac
f99be83a3453d14b224d6f7e1467b547 *gd73-06-24d1t07.flac
10d2a0ce18b5a895d9bfd0e1481fd94b *gd73-06-24d1t08.flac
a882298bf23946ac31da8c968ff8715d *gd73-06-24d1t09.flac
10594b1d91843bb554ae8cc246fa3dc3 *gd73-06-24d1t10.flac
8c9eaae85890dda7afc9fb705cc8a2c2 *gd73-06-24d1t11.flac
338c1813df2fb621a10f279dc9fc8feb *gd73-06-24d1t12.flac
c5080b2c7645725454c0b50eb112099f *gd73-06-24d2t01.flac
a0c523ca41efbef897251f2e41bf757b *gd73-06-24d2t02.flac
ade3a535d5b09a570a70c8af31004509 *gd73-06-24d2t03.flac
99142ea7a09dd9ff6ba18ed478f9321a *gd73-06-24d2t04.flac
a16d5a9c0448eaebee4fcc7024e732b3 *gd73-06-24d2t05.flac
e870a5a044152ff82c19fcd77a70f737 *gd73-06-24d2t06.flac
4424cb69edca05345c00a4336097dcf3 *gd73-06-24d2t07.flac
14639992289ff6bed418f056f802cf0a *gd73-06-24d2t08.flac
fada972ca29fff1904cd5e301f01a4cd *gd73-06-24d2t09.flac
3e51458548d6cfb10fc93d14f7796634 *gd73-06-24d2t10.flac
6203cc5d76d9241c59a8c9632eb2e6a7 *gd73-06-24d3t01.flac
b5b3e6adb76c552a826ed90fc38d3041 *gd73-06-24d3t02.flac
fbc283e73faefb8a48780da6e07c1681 *gd73-06-24d3t03.flac
45c41aae1be735d68554f839b061fd23 *gd73-06-24d3t04.flac
0158b64397516a90eaea235e788eb823 *gd73-06-24d3t05.flac
ffp
gd73-06-24d1t01.flac:939e9f0214b7781ea25a83a02e473746
gd73-06-24d1t02.flac:ea2d1f64d9c528988b109a8eadd7afd1
gd73-06-24d1t03.flac:22f18d0c50ff7d065fdb4e3fb1b0aa5c
gd73-06-24d1t04.flac:51833ce7b6eb3c33b036da3d5952b8db
gd73-06-24d1t05.flac:1c586449e9e7e11482275eaaba09ab58
gd73-06-24d1t06.flac:2a8fccd0e4009ffb4837ec6e799a4cb4
gd73-06-24d1t07.flac:45669fb6c7f5c1d252bac16fdbb75f85
gd73-06-24d1t08.flac:4040253fdc25e817b8119b169b01b41e
gd73-06-24d1t09.flac:f6fb1722a5f6cec15b96e86b0b4f4222
gd73-06-24d1t10.flac:2d3261baef2163e6baa740c661f1c062
gd73-06-24d1t11.flac:5922b443951e33389edd34d9d73c8e1d
gd73-06-24d1t12.flac:b3eb29685bc9522daeb7f2eb14236277
gd73-06-24d2t01.flac:f494b94ba5bf7b6285188fbf6bd75952
gd73-06-24d2t02.flac:590dde49302516dacdd29dfa10ff8e09
gd73-06-24d2t03.flac:e1975bede286e31cecc0bfa8cd16f85c
gd73-06-24d2t04.flac:84e980735d37e9c5699f603c3d2425f4
gd73-06-24d2t05.flac:e985716fb9e06eb3908f7871a9a89041
gd73-06-24d2t06.flac:e97dbe6a673da7ad59c43e4375aa56d1
gd73-06-24d2t07.flac:3f9cb5d8422bc8cdf052efb417610f93
gd73-06-24d2t08.flac:ab6fea117bd40fac0d4d4ca5106ea740
gd73-06-24d2t09.flac:c967dcb366695d7d02c1f224e10a44ea
gd73-06-24d2t10.flac:6e3d508a8ee33542fc1afdfc94fb02db
gd73-06-24d3t01.flac:cb31b3abeec9283b2db4b3d075cbdefb
gd73-06-24d3t02.flac:4a0f44172e231dbc3afaae1b57d3ba54
gd73-06-24d3t03.flac:5bd83f9a3d5215953e631560fa5317f0
gd73-06-24d3t04.flac:0c941cc1cbd2fa6ff04620ebf3ce8ee5
gd73-06-24d3t05.flac:fa27603a50ae1a6aca57d2d6e1b0c7a5

Comments
Add Comment
Other Sources (comments)
set 2 partial; MSBDR > 1... (1) partials of both sets; set... (1)
Date User Comment
07/03/2009 charlie miller Thanks to Joe B. Jones for his help with the pitch correction.
10/01/2009 cfrolio cut @ 2:30 of d2t02 (IKYR)
10/01/2009 charlie miller There's also a cut somewhere in Dark Star>Eyes, but I forgot to note it.
07/31/2015 4dave The L-R channels swap at 7:04 in Mississippi Half Step.