Browse Collections Artists Sources   Search Dates

Add Show    List Management    Help


Grateful Dead 07/02/89
Sullivan Stadium, Foxboro, MA
Comments Add Comment    Source Collectors    Add to Collection    Add to Want List    History
Source # 99911 Other Sources
Entered by Matt Vernon
Checksums ffp , flac-md5
Disc Counts 0 / 0
Media Size
Date Circulated
Date Added
07/01/2009
06/30/2009
Source Summary flac24; FOB AUD: Nakamichi CM300/CP4 shotguns > Sony TC-D5M > Maxell MX-90's with no Dolby. Mics on 8-foot stand, approx 10 feet in front of SBD area and 15 feet to stage left (Brent side). Transfer: MAC > Nakamichi DR-8 (no Dolby) > Edirol FA-66 > Wavelab > CD-Wave > TLH > FLAC 2496. Taped and transferred by Andrew F. 06/2009 
  Archive
Source Information - Download Text | Download Zip
GRATEFUL DEAD
Sullivan Stadium
Foxboro MA
07-02-1989

24bit/96kHz file-set

s1t01 How Y'All Doin' > crowd & tuning
s1t02 Playin' in the Band >
s1t03 Crazy Fingers >
s1t04 Wang Dang Doodle
s1t05 We Can Run
s1t06 Tennessee Jed
s1t07 Queen Jane Approximately
s1t08 To Lay Me Down
s1t09 Cassidy
s1t10 Don't Ease Me In

s2t01 Friend of the Devil
s2t02 Truckin' >
s2t03 He's Gone >  
s2t04 Eyes of the World >
s2t05 Drums >
s2t06 Space >
s2t07 The Wheel >
s2t08 Dear Mister Fantasy > Hey Jude Finale >
s2t09 Sugar Magnolia
s2t10 crowd & tuning
s2t11 Encore: The Mighty Quinn

FOB AUD: Nakamichi CM300/CP4 shotguns > Sony TC-D5M > Maxell
MX-90's with no Dolby. Mics on 8-foot stand, approx 10 feet
in front of SBD area and 15 feet to stage left (Brent side).

Transfer: MAC > Nakamichi DR-8 (no Dolby) > Edirol FA-66 >
Wavelab > CD-Wave > TLH > FLAC 2496. Taped and transferred
by Andrew F. 06/2009

Note: Patch from ID-8243 in Drums 03:12 > 03.17.

    length     expanded size    cdr  WAVE problems  fmt   ratio  filename
     2:05.000      72000044 B   cxx   --   ---xx   flac  0.5776  gd1989-07-02s1t01.flac
     5:24.253     186769964 B   cxx   --   ---xx   flac  0.6229  gd1989-07-02s1t02.flac
     7:40.040     264983084 B   cxx   --   ---xx   flac  0.6269  gd1989-07-02s1t03.flac
     8:11.160     282908204 B   cxx   --   ---xx   flac  0.6227  gd1989-07-02s1t04.flac
     5:23.240     186186284 B   cxx   --   ---xx   flac  0.6318  gd1989-07-02s1t05.flac
     9:21.147     323220524 B   cxx   --   ---xx   flac  0.6235  gd1989-07-02s1t06.flac
     6:20.973     219440240 B   cxx   --   ---xx   flac  0.6260  gd1989-07-02s1t07.flac
    11:01.480     381012524 B   cxx   --   ---xx   flac  0.6068  gd1989-07-02s1t08.flac
     6:04.147     209748524 B   cxx   --   ---xx   flac  0.6395  gd1989-07-02s1t09.flac
     3:15.200     112435250 B   cxx   --   ---xx   flac  0.6370  gd1989-07-02s1t10.flac
    11:42.173     404451884 B   cxx   --   ---xx   flac  0.6191  gd1989-07-02s2t01.flac
     7:06.333     245568044 B   cxx   --   ---xx   flac  0.6344  gd1989-07-02s2t02.flac
    13:56.013     481543724 B   cxx   --   ---xx   flac  0.6098  gd1989-07-02s2t03.flac
    10:46.493     372380204 B   cxx   --   ---xx   flac  0.6243  gd1989-07-02s2t04.flac
     8:39.720     299358704 B   cxx   --   ---xx   flac  0.5844  gd1989-07-02s2t05.flac
    10:01.613     346529324 B   cxx   --   ---xx   flac  0.5810  gd1989-07-02s2t06.flac
     5:03.133     174604844 B   cxx   --   ---xx   flac  0.6154  gd1989-07-02s2t07.flac
    10:48.747     373678124 B   cxx   --   ---xx   flac  0.6239  gd1989-07-02s2t08.flac
     8:58.387     310110764 B   cxx   --   ---xx   flac  0.6242  gd1989-07-02s2t09.flac
     0:47.518      27370304 B   cxx   --   ---xx   flac  0.5807  gd1989-07-02s2t10.flac
     5:17.905     183113168 B   cxx   --   ---xx   flac  0.6278  gd1989-07-02s2t11.flac
   157:54.675    5457413730 B                            0.6170  (21 files)

No errors occured.
Show Checksums
ffp
gd1989-07-02s1t01.flac:5e30273dfa009389a6cfabdbd9777b55
gd1989-07-02s1t02.flac:db0615801dcdb06e4eb30d9006e3bf65
gd1989-07-02s1t03.flac:1b811465d00f071f2b9bda209425098d
gd1989-07-02s1t04.flac:477da5d420abac455523e2e0898495e1
gd1989-07-02s1t05.flac:08bb61810b2d5d19b30fd9223847c961
gd1989-07-02s1t06.flac:01d113e48cf4ea25a673398e1d09b3c8
gd1989-07-02s1t07.flac:d8ea7da8c9f91df3ad0556d177a9181e
gd1989-07-02s1t08.flac:de9db85a92f4783825f90159b99ad467
gd1989-07-02s1t09.flac:79a3dd7ec394cc300eb4ca960738d1a7
gd1989-07-02s1t10.flac:4e28ba472dbf0429501c4618989a66bf
gd1989-07-02s2t01.flac:f60eaa19299b0364d2c7e9d43229311e
gd1989-07-02s2t02.flac:caa56081f4dfff40fe2871676ed51714
gd1989-07-02s2t03.flac:31a3f76d824dccf654ca336992a15270
gd1989-07-02s2t04.flac:aa7c96fae2851ea9c74602241da13b87
gd1989-07-02s2t05.flac:9a5d6541687650153a0356f201f743b9
gd1989-07-02s2t06.flac:a042a0f2688408baf93819b97da7b271
gd1989-07-02s2t07.flac:8532a556ec94d4bc0c9746d51198c2bf
gd1989-07-02s2t08.flac:683006b9e5a4410823e831bab21b6ef0
gd1989-07-02s2t09.flac:7483e96955a68b0302aaa88ccbf29b97
gd1989-07-02s2t10.flac:ce1bef17d8f42612116d4b52333a41d3
gd1989-07-02s2t11.flac:076d21d9e7e8e57fbd6f12a21828f7ec
flac-md5
7f70a4a640a10155a9426ea8c14c2d65 *gd1989-07-02s1t01.flac
a780f87e19e163db1d41cda60ab0e6e8 *gd1989-07-02s1t02.flac
d66e2a30baedece5604822d3af0889d4 *gd1989-07-02s1t03.flac
43f94d8d1950260dea583c366ef723e9 *gd1989-07-02s1t04.flac
4e36d73961d01c941d1e142563bf26f7 *gd1989-07-02s1t05.flac
41f8819835b1b34ad86b18944138f09c *gd1989-07-02s1t06.flac
a5377510b78e32b69ce3cd302d908cb0 *gd1989-07-02s1t07.flac
01a2034ee0b4338821228e34020266d7 *gd1989-07-02s1t08.flac
c211164ef27f2bb43dcc6665a86d2c4b *gd1989-07-02s1t09.flac
9611333821979e99afe0ae169444446f *gd1989-07-02s1t10.flac
9f1e6706e44418d67eeadda07473b6d8 *gd1989-07-02s2t01.flac
ac37cf7a95b077ca12c385b2e298cf87 *gd1989-07-02s2t02.flac
5c4f16f061a1745b02c6a88dfb45f872 *gd1989-07-02s2t03.flac
301e64d523378fb0caa02aec055743d8 *gd1989-07-02s2t04.flac
767bbbae2d2d3d38d9d6df7faa68911d *gd1989-07-02s2t05.flac
75cc554b73a510be50e5233f5a9b5c8d *gd1989-07-02s2t06.flac
55156f834247399f7e0d03d2c2558d1b *gd1989-07-02s2t07.flac
9a2ef04a2daac2265dedf40b433f7b3c *gd1989-07-02s2t08.flac
98aa97f64ae44503357428a926169b00 *gd1989-07-02s2t09.flac
de2e353b9e4b6c546fbba22507a2c49b *gd1989-07-02s2t10.flac
d20f370fe6524632004d85119bb51c2f *gd1989-07-02s2t11.flac

Comments
Add Comment
Other Sources (comments)
FOB Schoeps CMC42s spaced... (2) Digital Audience - Jill &... (0) flac16; AKG... (1) flac16; FOB Schoeps... (0) flac16; SRC: FOB... (0) flac24; SRC: FOB... (1) flac16; Source:... (0) flac24/96; Taper:... (0) flac16; FOB AUD:... (0) flac16; Nakamichi... (0) flac16; Source:... (0) flac16; Source: AKG... (1) flac16; Source:... (0) flac16; Ted Mattes... (0) flac24; Recording... (0) flac16; Recording... (0)
Date User Comment