Browse Collections Artists Sources   Search Dates

Add Show    List Management    Help


Grateful Dead 07/02/89
Sullivan Stadium, Foxboro, MA
Comments Add Comment    Source Collectors    Add to Collection    Add to Want List    History
Source # 99912 Other Sources
Entered by dr.unclear
Checksums ffp , flac-md5
Disc Counts 2 / 3
Media Size
Date Circulated
Date Added
07/01/2009
06/30/2009
Source Summary flac16; FOB AUD: Nakamichi CM300/CP4 shotguns > Sony TC-D5M > Maxell MX-90's with no Dolby. Mics on 8-foot stand, approx 10 feet in front of SBD area and 15 feet to stage left (Brent side). Transfer: MAC > Nakamichi DR-8 (no Dolby) > Edirol FA-66 > Wavelab > CD-Wave > R8Brain > TLH > FLAC 1644. Taped and transferred by Andrew F. 06/2009 
  Archive
Source Information - Download Text | Download Zip
GRATEFUL DEAD
Sullivan Stadium
Foxboro MA
07-02-1989

Disc One (64:46)

01 How Y'All Doin' > crowd & tuning
02 Playin' in the Band >
03 Crazy Fingers >
04 Wang Dang Doodle
05 We Can Run
06 Tennessee Jed
07 Queen Jane Approximately
08 To Lay Me Down
09 Cassidy
10 Don't Ease Me In
-- set break --

Disc Two (52:10)

01 Friend of the Devil
02 Truckin' >
03 He's Gone >  
04 Eyes of the World >
05 Drums >

Disc Three (40:57)

01 Space >
02 The Wheel >
03 Dear Mister Fantasy > Hey Jude Finale >
04 Sugar Magnolia
-- encore --
05 crowd & tuning
06 The Mighty Quinn

FOB AUD: Nakamichi CM300/CP4 shotguns > Sony TC-D5M > Maxell
MX-90's with no Dolby. Mics on 8-foot stand, approx 10 feet
in front of SBD area and 15 feet to stage left (Brent side).

Transfer: MAC > Nakamichi DR-8 (no Dolby) > Edirol FA-66 >
Wavelab > CD-Wave > R8Brain > TLH > FLAC 1644. Taped and
transferred by Andrew F. 06/2009

Notes:
- Patch from ID-8243 in Drums 03:12 > 03.17.
- 2nd Set disc break is seamless.

    length     expanded size    cdr  WAVE problems  fmt   ratio  filename
     2:05.00       22050044 B   ---   --   ---xx   flac  0.4341  gd1989-07-02d1t01.flac
     5:24.19       57198332 B   ---   --   ---xx   flac  0.5499  gd1989-07-02d1t02.flac
     7:40.03       81151100 B   ---   --   ---xx   flac  0.5645  gd1989-07-02d1t03.flac
     8:11.12       86640668 B   ---   --   ---xx   flac  0.5500  gd1989-07-02d1t04.flac
     5:23.18       57019580 B   ---   --   ---xx   flac  0.5757  gd1989-07-02d1t05.flac
     9:21.11       98986316 B   ---   --   ---xx   flac  0.5531  gd1989-07-02d1t06.flac
     6:20.72       67201388 B   ---   --   ---xx   flac  0.5601  gd1989-07-02d1t07.flac
    11:01.36      116685116 B   ---   --   ---xx   flac  0.4927  gd1989-07-02d1t08.flac
     6:04.11       64235516 B   ---   --   ---xx   flac  0.5855  gd1989-07-02d1t09.flac
     3:15.15       34433324 B   ---   --   ---xx   flac  0.5813  gd1989-07-02d1t10.flac
    11:42.13      123863420 B   ---   --   ---xx   flac  0.5292  gd1989-07-02d2t01.flac
     7:06.25       75205244 B   ---   --   ---xx   flac  0.5698  gd1989-07-02d2t02.flac
    13:56.01      147472796 B   ---   --   ---xx   flac  0.4992  gd1989-07-02d2t03.flac
    10:46.37      114041468 B   ---   --   ---xx   flac  0.5436  gd1989-07-02d2t04.flac
     8:39.54       91678652 B   ---   --   ---xx   flac  0.4373  gd1989-07-02d2t05.flac
    10:01.46      106124636 B   ---   --   ---xx   flac  0.4218  gd1989-07-02d3t01.flac
     5:03.10       53472764 B   ---   --   ---xx   flac  0.5325  gd1989-07-02d3t02.flac
    10:48.56      114438956 B   ---   --   ---xx   flac  0.5563  gd1989-07-02d3t03.flac
     8:58.29       94971452 B   ---   --   ---xx   flac  0.5570  gd1989-07-02d3t04.flac
     0:47.39        8382572 B   ---   --   ---xx   flac  0.4145  gd1989-07-02d3t05.flac
     5:17.69       56081132 B   ---   --   ---xx   flac  0.5537  gd1989-07-02d3t06.flac
   157:54.51     1671334476 B                            0.5285  (21 files)

No errors occured.
Show Checksums
ffp
gd1989-07-02d1t01.flac:849a26f042922984ab3efaee6d03cc47
gd1989-07-02d1t02.flac:53796ef90caf4b24e268b30b7db88f32
gd1989-07-02d1t03.flac:60659d9bb70bc547f0d9b90dc34850f5
gd1989-07-02d1t04.flac:cec96cd51f509107c0015517e5643436
gd1989-07-02d1t05.flac:c5354f94a101a05e6f3667aef74e9d59
gd1989-07-02d1t06.flac:c56fc5e8d5e3deb9beb0b078f9acf046
gd1989-07-02d1t07.flac:6360391bba0fc146646a6f29310c5042
gd1989-07-02d1t08.flac:86fce19eb59c66043a11bfeab1602239
gd1989-07-02d1t09.flac:ed8b161e110a1e75dca9cf768ed55bbb
gd1989-07-02d1t10.flac:987e773360c1e05b179e29018b6fd451
gd1989-07-02d2t01.flac:33cb568f60ad6f5f7b0a6604f8478b31
gd1989-07-02d2t02.flac:6e8dbad51c141a03c595b85bb7ca29e1
gd1989-07-02d2t03.flac:dd01795a30273f0c0365bcc9d6d9be30
gd1989-07-02d2t04.flac:8b1658a0e48f182f5e131be94a97bcaa
gd1989-07-02d2t05.flac:581360b050947f01b7f754c393e28d50
gd1989-07-02d3t01.flac:d5b4fcd430da46299ca0b732ebe5f00c
gd1989-07-02d3t02.flac:356b36321a1445df8a37c6a415acd617
gd1989-07-02d3t03.flac:e916712ede1f5bd35aeea18e9b36334d
gd1989-07-02d3t04.flac:e58ebe7da0d3bd2dfbc148ba2cf9cace
gd1989-07-02d3t05.flac:909df2059e42bd3eaf175a5ccf9bfbdc
gd1989-07-02d3t06.flac:c181dbe33a6ed06df0e1c66561ec59c4
flac-md5
40c9074f3b75d8b3944075385172970d *gd1989-07-02d1t01.flac
7af7bd832522579a8c76c96d6e4fce13 *gd1989-07-02d1t02.flac
3d44d897eaa77eb03338eee5f303feed *gd1989-07-02d1t03.flac
64d5f3b999b2faa6ac40ed38761bf48f *gd1989-07-02d1t04.flac
326719ea23d27ce1583a24af39f4464e *gd1989-07-02d1t05.flac
aae27cc1d187ad422cf2583537efd997 *gd1989-07-02d1t06.flac
cab55869863c68614629f4e6b4787b16 *gd1989-07-02d1t07.flac
6160f5becbf5229ab046ad3231b2cbb1 *gd1989-07-02d1t08.flac
d81de6c0565f0a2f696a7a3ddcbd5e18 *gd1989-07-02d1t09.flac
8c22cfc62afddce171776ba1ce361ec5 *gd1989-07-02d1t10.flac
4efc2826b1cadf02a544ee8dde2d6029 *gd1989-07-02d2t01.flac
64d3ea53f338174ce3ab75c0e3b4937d *gd1989-07-02d2t02.flac
ce97314fa952c96a71ea487380b82924 *gd1989-07-02d2t03.flac
7907a1b688386c252c3b978a1c48e67b *gd1989-07-02d2t04.flac
64ebd2e6033c6af450eac55c103f3763 *gd1989-07-02d2t05.flac
e0295a132478a0cb57b627cf83b898a2 *gd1989-07-02d3t01.flac
24f1e4766b16cda23e2d9d59b6835a42 *gd1989-07-02d3t02.flac
58e24973a737d89773aad3f770ac95af *gd1989-07-02d3t03.flac
ac0ee83eedc8a7357f131c6f4d6e1144 *gd1989-07-02d3t04.flac
c58acf377593c7d664dcf55d1febf173 *gd1989-07-02d3t05.flac
ceb2f25097da68c60ad06afc41f3a6e5 *gd1989-07-02d3t06.flac

Comments
Add Comment
Other Sources (comments)
FOB Schoeps CMC42s spaced... (2) Digital Audience - Jill &... (0) flac16; AKG... (1) flac16; FOB Schoeps... (0) flac16; SRC: FOB... (0) flac24; SRC: FOB... (1) flac16; Source:... (0) flac24/96; Taper:... (0) flac24; FOB AUD:... (0) flac16; Nakamichi... (0) flac16; Source:... (0) flac16; Source: AKG... (1) flac16; Source:... (0) flac16; Ted Mattes... (0) flac24; Recording... (0) flac16; Recording... (0)
Date User Comment