Browse Collections Artists Sources   Search Dates

Add Show    List Management    Help


Grateful Dead 05/04/80
Baltimore Civic Center, Baltimore, MD
Comments Add Comment    Source Collectors    Add to Collection    Add to Want List    History
Source # 99953 Other Sources
Entered by Matt Vernon
Checksums flac-md5 , ffp
Disc Counts 2 / 3
Media Size
Date Circulated
Date Added
07/01/2009
07/01/2009
Source Summary flac16; Recorded by Bob Morris Nakamichi shotguns>Marantz Superscope CD320>Maxell XLII Nak Transfer: DR-1>Korg MR-1000>Audiogate>16/44>cdwav by Bob Morris, June, 2009 
  Archive
Source Information - Download Text | Download Zip
Grateful Dead
Baltimore Civic Center
Baltimore MD
May 4, 1980

Recorded by Bob Morris
Nakamichi shotguns>Marantz Superscope CD320>Maxell XLII

Transfer by Bob Morris, June, 2009
Nak DR-1>Korg MR-1000>Audiogate>16/44>cdwav

Disc One

1st Set

1 tuning
2 Mississppi Halfstep ->
3 Franklin's Tower ->
4 Feel Like A Stranger
5 Althea
6 El Paso
7 Easy to Love You
8 Brown_eyed Women
9 It's All Over Now
10 Don't Ease Me In
11 The Promised Land

Disc Two

2nd Set

1 tuning
2 Scarlet Begonias ->
3 Fire on the Mountain
4 Samson & Deliah
5 Ship of Fools

Disc Three

2nd Set (cont)

1 Playing in the Band ->
2 drums ->
3 space ->
4 Black Peter ->
5 Sugar Magnolia

Encore

6 U.S. Blues

Notes - Sugar Mag has edits, haven't patched yet.
Encore recorded with Sony ECM-990 stereo mic


   length     expanded size   cdr  WAVE problems filename
    1:29.16       15737276    ---   --   ---xx   gd80-05-04.d1t01.flac
    9:52.55      104558204    ---   --   ---xx   gd80-05-04.d1t02.flac
   10:51.09      114857612    ---   --   ---xx   gd80-05-04.d1t03.flac
    9:36.34      101686412    ---   --   ---xx   gd80-05-04.d1t04.flac
    7:54.21       83663036    ---   --   ---xx   gd80-05-04.d1t05.flac
    4:44.23       50151740    ---   --   ---xx   gd80-05-04.d1t06.flac
    3:46.49       39981692    ---   --   ---xx   gd80-05-04.d1t07.flac
    5:10.28       54749900    ---   --   ---xx   gd80-05-04.d1t08.flac
   10:06.33      106976060    ---   --   ---xx   gd80-05-04.d1t09.flac
    3:17.66       34906076    ---   --   ---xx   gd80-05-04.d1t10.flac
    4:47.54       50753852    ---   --   ---xx   gd80-05-04.d1t11.flac
    0:47.06        8304956    ---   --   ---xx   gd80-05-04.d2t01.flac
    6:53.29       72921452    ---   --   ---xx   gd80-05-04.d2t02.flac
   10:07.51      107194796    ---   --   ---xx   gd80-05-04.d2t03.flac
    8:11.62       86758268    ---   --   ---xx   gd80-05-04.d2t04.flac
    8:08.73       86254940    ---   --   ---xx   gd80-05-04.d2t05.flac
   16:21.48      173161340    ---   --   ---xx   gd80-05-04.d3t01.flac
    8:20.10       88223564    ---   --   ---xx   gd80-05-04.d3t02.flac
    2:24.57       25535916    -b-   --   ---xx   gd80-05-04.d3t03.flac
   10:00.27      105903548    ---   --   ---xx   gd80-05-04.d3t04.flac
    8:10.71       86603020    -b-   --   ---xx   gd80-05-04.d3t05.flac
    5:24.03       57160700    ---   --   ---xx   gd80-05-04.d3t06.flac
  156:28.00     1656044360 B                     (totals for 22 files, 0.5959 overall compression ratio)
Show Checksums
flac-md5
709ee323e440d83f4f69cb6c2d58b7d4 *gd80-05-04.d1t01.flac
9dadb702f0658333465fa6ed51d9c7b1 *gd80-05-04.d1t02.flac
9cd5f02885fcf59fe61fcdf517f9d36e *gd80-05-04.d1t03.flac
6f47e760b7e77acc0a849ec00becb321 *gd80-05-04.d1t04.flac
038fa824521637460e1373e8b6cb21a0 *gd80-05-04.d1t05.flac
413c6ab6dd0458506ae2cb85633a96ad *gd80-05-04.d1t06.flac
aed78930b59829ecf70f701f133ef8f0 *gd80-05-04.d1t07.flac
3da6c326136106a50584b68881db5b0e *gd80-05-04.d1t08.flac
1d430739dabb821b4a74361fe2333d44 *gd80-05-04.d1t09.flac
3673a8ebb15a44ee9b0b84f0ba1bdef8 *gd80-05-04.d1t10.flac
88c8a00c144d8411cf76a794c7cd4ad6 *gd80-05-04.d1t11.flac
1d7378e838825683f46df81b459f9f6e *gd80-05-04.d2t01.flac
323e74b4d691fdc7b1d1cb5840fef0ad *gd80-05-04.d2t02.flac
8c6a31dc886246ca30e8847f665fc836 *gd80-05-04.d2t03.flac
c56ac557a59e55303ff7aa2edb8023a1 *gd80-05-04.d2t04.flac
d10c5fc2ddf98e731cde22543c39f52b *gd80-05-04.d2t05.flac
29cc84fcd76aa49cfd892674e530360e *gd80-05-04.d3t01.flac
f6d35eb8dcc18c9c58636e6f086506a1 *gd80-05-04.d3t02.flac
76f2fa6891c3861bf2aa10b4322646a1 *gd80-05-04.d3t03.flac
a2f3746b63847f7589a5187d65ac8970 *gd80-05-04.d3t04.flac
dcdad3d45920a6a975c6d66f9a201284 *gd80-05-04.d3t05.flac
39457135908a16b5782a17dbf632e1b9 *gd80-05-04.d3t06.flac
ffp
gd80-05-04.d1t01.flac:e9b2eecb46ce1a71516d59e92c40651d
gd80-05-04.d1t02.flac:7fb40a74a8df05aac8d624d83dd9a851
gd80-05-04.d1t03.flac:3972e3554f9f88638cbe93094510e2b1
gd80-05-04.d1t04.flac:a1247cc7fab39f4b3c8bdf0470c852d1
gd80-05-04.d1t05.flac:1fa692164baa68a0239388aeb92bc2d1
gd80-05-04.d1t06.flac:ace11e041e6910a9f5bd4d786b090277
gd80-05-04.d1t07.flac:a4a5c5e12b259f9058524292e95a907a
gd80-05-04.d1t08.flac:70947f2bb56a522d554fa8a57b6eca10
gd80-05-04.d1t09.flac:1112c840733f4a3beec6375972ac2582
gd80-05-04.d1t10.flac:a29634383cf86cfa0e55b02f3c607a4b
gd80-05-04.d1t11.flac:383f414719a92a5a4c0f7537a67813d8
gd80-05-04.d2t01.flac:6939cd6674eafb47c10c05eb1729fd81
gd80-05-04.d2t02.flac:14de137a8c93cfe58e8199c4fbd3e149
gd80-05-04.d2t03.flac:b6fac095b5817970de7a057143ce8727
gd80-05-04.d2t04.flac:bbb7e7f6a97544a3e61ffa533c944628
gd80-05-04.d2t05.flac:d04f4f4be174edd96af44d10fffb7660
gd80-05-04.d3t01.flac:570d99692f9ba76eab545b4a2bedd3a5
gd80-05-04.d3t02.flac:127c6d778c34f6237f1dae1d5e324b2e
gd80-05-04.d3t03.flac:00a26195877ec1f7b647e94101bc6c5d
gd80-05-04.d3t04.flac:904774b7e1ee97fa161ae6d69b41b2c3
gd80-05-04.d3t05.flac:7845fdec03eded0a9adee93a665250da
gd80-05-04.d3t06.flac:47053bee25285fc0d557b0326d4b6f88

Comments
Add Comment
Other Sources (comments)
Nak 300's>MC>DAT>CD; via... (1) flac16; MAC = 2 x... (1) flac24; MAC = 2 x... (1) flac16; MAC = 2 x... (0) flac24; MAC = 2 x... (0) flac16; Nakamichi... (0) flac24; Nakamichi... (0) flac24; 2 AKG-1000E>... (2) flac16; Recorded By... (0)
Date User Comment