Browse Collections Artists Sources   Search Dates

Add Show    List Management    Help


Grateful Dead 05/06/80
Rec Hall, Penn State U, State College, PA
Comments Add Comment    Source Collectors    Add to Collection    Add to Want List    History
Source # 99954 Other Sources
Entered by Gary Field
Checksums flac-md5 , ffp
Disc Counts 2 / 3
Media Size
Date Circulated
Date Added
07/01/2009
07/01/2009
Source Summary flac16; Sony ECM-990 stereo mic > Cassette Master (Marantz Superscope CD320/Maxell UDXLII) Cassette Master (Nakamichi DR-1) > Korg MR-1000 (1-bit/5.6MHz) > Audiogate (1-bit/5.6MHz > 16-bit/44.1KHz) > cdwav (edits) Recorded by Bob Morris; transferred & mastered by Bob Morris, June, 2009; Patched upgrade in circulation 
  Archive
Source Information - Download Text | Download Zip
Grateful Dead - May 6, 1980
Recreation Building, Penn State - State College, Pennsylvania

Sony ECM-990 stereo mic > Cassette Master (Marantz Superscope CD320/Maxell UDXLII)

Cassette Master (Nakamichi DR-1) > Korg MR-1000 (1-bit/5.6MHz) >
Audiogate (1-bit/5.6MHz > 16-bit/44.1KHz) > cdwav (edits)

Recorded by Bob Morris; transferred & mastered by Bob Morris, June, 2009

Disc One

Set 1:

01 tuning
02 Alabama Getaway ->
03 Greatest Story Ever Told
04 Peggy-O
05 Me & My Uncle ->
06 Big River
07 tuning
08 Loser
09 tuning
10 Far From Me
11 Lazy Lightnin' ->
12 Supplication
13 Althea
14 Lost Sailor ->
15 St of Circumstance

Disc 2

Set 2:

01 tuning
02 Take a step back jam ->
03 China Cat Sunflower ->
04 I Know You Rider

Disc 3

01 tuning
02 Feel Like A Stranger ->
03 He's Gone ->
04 The Other One ->
05 drums ->
06 space ->
07 Wharf Rat ->
08 Around & Around ->
09 Johnny B. Goode

Encore
10 Brokedown Palace

Notes - tape flip in The Other One and between drums and space



   length     expanded size   cdr  WAVE problems filename
    2:29.25       26342444    ---   --   ---xx   gd80-05-06.d1t01.flac
    4:23.73       46564940    ---   --   ---xx   gd80-05-06.d1t02.flac
    4:22.08       46235660    ---   --   ---xx   gd80-05-06.d1t03.flac
    6:34.51       69621596    ---   --   ---xx   gd80-05-06.d1t04.flac
    3:18.46       35035436    ---   --   ---xx   gd80-05-06.d1t05.flac
    5:23.13       57007820    ---   --   ---xx   gd80-05-06.d1t06.flac
    0:46.37        8201468    ---   --   ---xx   gd80-05-06.d1t07.flac
    7:19.14       77472572    ---   --   ---xx   gd80-05-06.d1t08.flac
    1:19.09       13956812    ---   --   ---xx   gd80-05-06.d1t09.flac
    5:18.45       56201084    ---   --   ---xx   gd80-05-06.d1t10.flac
    3:29.24       36924092    ---   --   ---xx   gd80-05-06.d1t11.flac
    5:15.01       55568396    ---   --   ---xx   gd80-05-06.d1t12.flac
    8:46.41       92882876    ---   --   ---xx   gd80-05-06.d1t13.flac
    6:23.43       67662380    ---   --   ---xx   gd80-05-06.d1t14.flac
    6:16.71       66493436    ---   --   ---xx   gd80-05-06.d1t15.flac
    1:13.02       12881948    ---   --   ---xx   gd80-05-06.d2t01.flac
    0:44.19        7806332    ---   --   ---xx   gd80-05-06.d2t02.flac
    5:23.48       57090140    ---   --   ---xx   gd80-05-06.d2t03.flac
    6:18.00       66679244    ---   --   ---xx   gd80-05-06.d2t04.flac
    2:34.58       27302060    ---   --   ---xx   gd80-05-06.d3t01.flac
    9:32.13      100931420    ---   --   ---xx   gd80-05-06.d3t02.flac
   14:09.00      149763644    ---   --   ---xx   gd80-05-06.d3t03.flac
    4:33.13       48187820    ---   --   ---xx   gd80-05-06.d3t04.flac
    4:36.04       48695852    ---   --   ---xx   gd80-05-06.d3t04b.flac
    8:41.09       91925612    ---   --   ---xx   gd80-05-06.d3t05.flac
    4:38.42       49138028    ---   --   ---xx   gd80-05-06.d3t06.flac
   10:02.49      106308092    ---   --   ---xx   gd80-05-06.d3t07.flac
    3:59.10       42183164    ---   --   ---xx   gd80-05-06.d3t08.flac
    5:53.60       62410364    ---   --   ---xx   gd80-05-06.d3t09.flac
    5:59.50       63445244    ---   --   ---xx   gd80-05-06.d3t10.flac
  159:45.53     1690919976 B                     (totals for 30 files, 0.5886 overall compression ratio)
Show Checksums
flac-md5
84f1543f60427bf36e3f316dd6c2efb9 *gd80-05-06.d1t01.flac
89b9be071dd4fa573a4fb01a541cfbb1 *gd80-05-06.d1t02.flac
05b4e520af5d0a6f5b1bb4546b2bbb48 *gd80-05-06.d1t03.flac
173d1354d7881e96a3ad75c10973b0b1 *gd80-05-06.d1t04.flac
156cac87f0c069d27efd777d425d6e8e *gd80-05-06.d1t05.flac
7ab050afdcff58f3376185ea23169924 *gd80-05-06.d1t06.flac
a693a4d9c1a68a5469ab01742353adf4 *gd80-05-06.d1t07.flac
c3c656128de92c66e22d0601d5331260 *gd80-05-06.d1t08.flac
46231eef783d8747f91bf3c8f9fd9fbc *gd80-05-06.d1t09.flac
ebbcdde18892c9df53e4256613b95d64 *gd80-05-06.d1t10.flac
74c0cd831bbc3d84031df151cd6c27de *gd80-05-06.d1t11.flac
f917355e7db4e4970502c15d4510afb3 *gd80-05-06.d1t12.flac
ba8165325a0d0d28ba95828416669323 *gd80-05-06.d1t13.flac
c5f49ee96beb13d47b447e3c28e60be4 *gd80-05-06.d1t14.flac
178029fe56b7a278af2c20ba1a81c135 *gd80-05-06.d1t15.flac
a350a86901455dff36f970b9673967f5 *gd80-05-06.d2t01.flac
f0bcd050c12d9f05358c63ef6b352ce4 *gd80-05-06.d2t02.flac
0bd0dcda3382e0460e79345b6d95280b *gd80-05-06.d2t03.flac
b07aeedba464e0e61486398a28742aa5 *gd80-05-06.d2t04.flac
934ac29768647d7c296ecb420d0f4597 *gd80-05-06.d3t01.flac
d633f7337627732858147d0baa601bd2 *gd80-05-06.d3t02.flac
05fb2253c2e1df31dec30b9147e9c55c *gd80-05-06.d3t03.flac
c3ded460df0535232e7670ff34bc7faf *gd80-05-06.d3t04.flac
06e3ff8dd3bfa269bfc716e8d792a192 *gd80-05-06.d3t04b.flac
76254d4e5649abab9587032be21e2735 *gd80-05-06.d3t05.flac
889b8c88f6a265ac738aba87979407e4 *gd80-05-06.d3t06.flac
c31740bfed14af933084c0ada39c4bc4 *gd80-05-06.d3t07.flac
af7443a34740ac8b6ae22967418f7416 *gd80-05-06.d3t08.flac
53597a9403429cdcf534ac97dd986638 *gd80-05-06.d3t09.flac
d03f4b44f0ab88e3b3e5dc3462bdd9e8 *gd80-05-06.d3t10.flac
ffp
gd80-05-06.d1t01.flac:74a2af0f352d23222ad5cd70c0c9ed50
gd80-05-06.d1t02.flac:cd439c10debe04b02253afd247d4e3e3
gd80-05-06.d1t03.flac:f0558139684669ee770412d132f7c951
gd80-05-06.d1t04.flac:77343e72e0f2863e0a662fafef707d91
gd80-05-06.d1t05.flac:9383d79f00a022d3fc831e38a789b93e
gd80-05-06.d1t06.flac:693675a5ee81e53c9b8770969d4c2580
gd80-05-06.d1t07.flac:a3fb360ef4e550b9fced782e8bf71e60
gd80-05-06.d1t08.flac:2985028ae51d372968abb5150fa7e26e
gd80-05-06.d1t09.flac:b44d3f0dc0bb2e9e1dc86a95e4b6d587
gd80-05-06.d1t10.flac:420d29a69e3596e166228c40419693b8
gd80-05-06.d1t11.flac:eb9ac3215231bdda383719f692948b4c
gd80-05-06.d1t12.flac:7a8adc144432dd618c14ac5bf99ef681
gd80-05-06.d1t13.flac:3427bd5b26088498c55f6cffbf679a7d
gd80-05-06.d1t14.flac:ad89baa3e974bc03af892d0d2b311ef6
gd80-05-06.d1t15.flac:d94e85c7471184da9074184c845f135e
gd80-05-06.d2t01.flac:a12a6044668387a16308d66042241a13
gd80-05-06.d2t02.flac:79076628d523a14e5653eeb4dc325d18
gd80-05-06.d2t03.flac:7c925a2947227759d806b8274d430e88
gd80-05-06.d2t04.flac:1f3dab76f149bff9ea8a971934255f94
gd80-05-06.d3t01.flac:5f79b7a113f9311f51eef50537e0d9c9
gd80-05-06.d3t02.flac:7f42bd6ae27772afed061728556b15c7
gd80-05-06.d3t03.flac:b4af0e06a3945eb778e643d05dffb945
gd80-05-06.d3t04.flac:13171bc141fcfcacd6963b66a8ea47b2
gd80-05-06.d3t04b.flac:d17eda8cc0e40898989db6143a059d6f
gd80-05-06.d3t05.flac:a2fb276aa7f0f187deb7b762f822244a
gd80-05-06.d3t06.flac:c357214fde1e33ae1a034142d50ada28
gd80-05-06.d3t07.flac:cc12732fd4e913912a8568c29d3405aa
gd80-05-06.d3t08.flac:ffa1c1b53eb4f162e9441ce68c9ead70
gd80-05-06.d3t09.flac:e6e82c3ba984e40e49c65494632c788f
gd80-05-06.d3t10.flac:39333370e4dccc38768f3c24237029df

Comments
Add Comment
Other Sources (comments)
Unknown Audience Recording:... (0) Recording by Rob Eaton:... (0) flac16; Sony ECM-990... (0) flac16; Recorded By... (0)
Date User Comment