Browse Collections Artists Sources   Search Dates

Add Show    List Management    Help


Grateful Dead 10/20/89
The Spectrum, Philadelphia, PA
Comments Add Comment    Source Collectors    Add to Collection    Add to Want List    History
Source # 102200 Other Sources
Entered by Matt Vernon
Checksums ffp , flac-md5
Disc Counts 2 / 3
Media Size
Date Circulated
Date Added
10/30/2009
10/29/2009
Source Summary flac16; Matrix by Hunter Seamons using Final Cut Pro (FLAC>AIFF>Final Cut>WAV>FLAC) 
  Archive
Source Information - Download Text | Download Zip
Grateful Dead
The Spectrum
Philadelphia, PA
October 20, 1989

Jerry Garcia - Lead Guitar, Vocals
Mickey Hart - Drums
Bill Kreutzmann - Drums
Phil Lesh - Electric Bass, Vocals
Brent Mydland - Keyboards, Vocals
Bob Weir - Rhythm Guitar, Vocals



*Matrix*


-----------------------------------------------------------------
SBD (shnid=83317):

Recording Info:
SBD -> Cassette Master (TDK MA-XG90)

Transfer Info:
Cassette Master (Tascam 122mkII) -> Apogee MiniMe (24bit/48k) ->
Samplitude Professional v8.01 -> FLAC/16
(3 Discs Audio / 2 Discs FLAC)

All Transfers and Mastering By Charlie Miller
[email protected]
January 28, 2007

[Cuts:]
The Other One Jam (9:13 - 9:22)
Wharf Rat (4:12 - 4:29)

Notes:
-- Thanks to Paul Scotton and Joani Walker for the tapes
-- This was the longest show of the year

[Momentary cut in SBD during Wharf Rat]

-----------------------------------------------------------------
AUD (shnid=99867):

Source: (OTS)Nak.300/cp4->Sony D-5M (Dolby B encoded)->TDK MA-X90 x2->Sony D-5M (Dolby B decoded)->Korg MR-1000 (1Bit/5.6MHz)->
             AudioGate->wav(16/44.1)->SF8->FLAC
Taper: Dave Barfield
Transferred and Seeded by M.Watson on June 28, 2009

[Space > Drums is patched with shnid=99071, recorded and transferred by rumrunners.]
-----------------------------------------------------------------
Thank you to Charlie Miller for the SBD transfer,
to Dave Barfield and rumrunners for recording the show,
and to M. Watson and rumrunners for the AUD transfers.

Matrix by Hunter Seamons using Final Cut Pro (FLAC>AIFF>Final Cut>WAV>FLAC)
October 28, 2009


Set I
-----
d1t01 - Tuning
d1t02 - Touch Of Grey ->
d1t03 - Greatest Story Ever Told
d1t04 - Candyman
d1t05 - Picasso Moon
d1t06 - Just A Little Light
d1t07 - Tennessee Jed
d1t08 - Stuck Inside Of Mobile With The Memphis Blues Again
d1t09 - Stagger Lee
d1t10 - The Promised Land ->
d1t11 - California Earthquake*

Set II
-----
d2t01 - Tuning
d2t02 - Hey Pocky Way ->
d2t03 - Scarlet Begonias ->
d2t04 - Fire On The Mountain ->
d2t05 - Truckin' ->
d2t06 - The Other One Jam ->
d2t07 - Drums ->
d3t01 - Space ->
d3t02 - I Will Take You Home ->
d3t03 - The Other One ->
d3t04 - Wharf Rat ->
d3t05 - Sugar Magnolia

Encore
------
d3t06 - Brokedown Palace


*First California Earthquake, in responce to the 10/17 "Loma Prieta" Earthquake that hit the Bay Area. It was played once more three days later in Charlotte.


Notes:

1) There are echoey, phasey sounding effects done on the vocals at points, such as in Just A Little Light and Picasso Moon.

    length     expanded size    cdr  WAVE problems  fmt   ratio  filename
     1:16.33       13484060 B   ---   --   ---xx  gd89-10-20d1t01.flac
     6:15.70       66314684 B   ---   --   ---xx  gd89-10-20d1t02.flac
     4:46.09       50471612 B   ---   --   ---xx  gd89-10-20d1t03.flac
     9:50.00      104076044 B   ---   --   ---xx  gd89-10-20d1t04.flac
    10:03.62      106515068 B   ---   --   ---xx  gd89-10-20d1t05.flac
     5:50.29       61808252 B   ---   --   ---xx  gd89-10-20d1t06.flac
     8:39.49       91666892 B   ---   --   ---xx  gd89-10-20d1t07.flac
    11:19.24      119832092 B   ---   --   ---xx  gd89-10-20d1t08.flac
     6:53.31       72926156 B   ---   --   ---xx  gd89-10-20d1t09.flac
     4:26.62       47068268 B   ---   --   ---xx  gd89-10-20d1t10.flac
     6:02.52       63979148 B   ---   --   ---xx  gd89-10-20d1t11.flac
     0:59.70       10572284 B   ---   --   ---xx  gd89-10-20d2t01.flac
     6:50.73       72495740 B   ---   --   ---xx  gd89-10-20d2t02.flac
    10:16.36      108747116 B   ---   --   ---xx  gd89-10-20d2t03.flac
    13:42.50      145118444 B   ---   --   ---xx  gd89-10-20d2t04.flac
     6:35.17       69718028 B   ---   --   ---xx  gd89-10-20d2t05.flac
    14:40.66      155387276 B   ---   --   ---xx  gd89-10-20d2t06.flac
    10:50.61      114803516 B   ---   --   ---xx  gd89-10-20d2t07.flac
    10:48.66      114462476 B   ---   --   ---xx  gd89-10-20d3t01.flac
     5:21.02       56629148 B   ---   --   ---xx  gd89-10-20d3t02.flac
    10:56.52      115840748 B   ---   --   ---xx  gd89-10-20d3t03.flac
    10:20.14      109400972 B   ---   --   ---xx  gd89-10-20d3t04.flac
    10:35.07      112030508 B   ---   --   ---xx  gd89-10-20d3t05.flac
     5:28.73       58030940 B   ---   --   ---xx  gd89-10-20d3t06.flac
   192:52.33     2041379472 B                            0.5848  (24 files)

Show Checksums
ffp
gd89-10-20d1t01.flac:fb603c3b0d768888f234b1ae00b40fe0
gd89-10-20d1t02.flac:9556afbcc2bfea9ebfc909cd9f1d5bc5
gd89-10-20d1t03.flac:966415d297d0edaa58361c4c5fae2c0d
gd89-10-20d1t04.flac:712d2d15ef6f4d9191c75d25e2610a85
gd89-10-20d1t05.flac:ae88fa820111deb77c190d524b81644d
gd89-10-20d1t06.flac:7179f40f5fc6ce29d0109b9d320f9073
gd89-10-20d1t07.flac:82d01ac0174c9ed9744fc5f2ac6b9d9f
gd89-10-20d1t08.flac:663e1fe8387951cad60d8b3cdf391e16
gd89-10-20d1t09.flac:c320be4a2bd5df3db417233d005e8ade
gd89-10-20d1t10.flac:3c155574bded4bd2016c9438440b1468
gd89-10-20d1t11.flac:cc9ff0d0fdb749958ffc7217713242de
gd89-10-20d2t01.flac:7eb15560a46e690cd856d749551c851d
gd89-10-20d2t02.flac:1f48b6f1d74a7b1ebf2dda7364e83215
gd89-10-20d2t03.flac:da8f7bcfccb9e4d6380f04a35c00a5f9
gd89-10-20d2t04.flac:8f952dd5c0c40f7594522c92d4b3709e
gd89-10-20d2t05.flac:c6245e89dec51eb77b91d133d7d5674a
gd89-10-20d2t06.flac:991581fc266b9efc3eb12ecf3d3626b7
gd89-10-20d2t07.flac:c11d2d448ee1324b8b5632cbc846dbf1
gd89-10-20d3t01.flac:11d9b7bc19a8fc5c9540ab2b2d63c628
gd89-10-20d3t02.flac:a07f57b76a3f75b6d5c61bf812cbbf2a
gd89-10-20d3t03.flac:7830ed3434cc0c934f22767870f7923b
gd89-10-20d3t04.flac:2489bdf5f9ee2daf7d20592b55805b98
gd89-10-20d3t05.flac:c6294789efb325c81b6040bbf358008b
gd89-10-20d3t06.flac:13127b67d2dcf10fa18f622c83e8f4ec
flac-md5
0d2490144ca18ef1ee408ae99419b2c6 *gd89-10-20d1t01.flac
0fb14085d4e7ca483d2452d54920edc7 *gd89-10-20d1t02.flac
7340919ce62036e5faf0381bd2214394 *gd89-10-20d1t03.flac
552101d4314edd5c02b0f78bb21bb0cb *gd89-10-20d1t04.flac
a23472dee2330546ae75f3238db9dc23 *gd89-10-20d1t05.flac
47a2206c294adc15e2e7ff05db2b5a8e *gd89-10-20d1t06.flac
8700181fe7e453af39d469e92354c5b8 *gd89-10-20d1t07.flac
5f48455ab4375b65c0069bf874451c9a *gd89-10-20d1t08.flac
1be3b4f081b5dc7b77c0bada8f9ce067 *gd89-10-20d1t09.flac
802389ba66c55fe5bee711bd729fcd89 *gd89-10-20d1t10.flac
ea5689eec9235d295c76b22d1863af39 *gd89-10-20d1t11.flac
406bc171615d8a29e27a5f55b823bfba *gd89-10-20d2t01.flac
ba678c5b5832a1c2f02e8bf6982cd1ff *gd89-10-20d2t02.flac
39befb779cd42359abf8429f2e63379e *gd89-10-20d2t03.flac
4cd171ba7083d85ba0f4fee8b62ed2b2 *gd89-10-20d2t04.flac
f0dc1449dd407a1e696f934c7a246661 *gd89-10-20d2t05.flac
66ce0090164496ab40f9169b5f5ce375 *gd89-10-20d2t06.flac
93041ba3debe2db03414ead92acc5ae3 *gd89-10-20d2t07.flac
2fc17ce8c34c410472e56d463e11821a *gd89-10-20d3t01.flac
ae34783fceda2c543f2130cfa54980ac *gd89-10-20d3t02.flac
6326c7d1ae8f2460ff54da3def87a93a *gd89-10-20d3t03.flac
ba7909ba8ed8670dea1a950c054114f0 *gd89-10-20d3t04.flac
5018899cc47b6ad165142feb487a027b *gd89-10-20d3t05.flac
69c011fc58738db799535183c77f6c53 *gd89-10-20d3t06.flac

Comments
Add Comment
Other Sources (comments)
DSBD>C?>DAT>CDR; via eD... (0) Ultra-Matrix Soundboard DAT... (0) Seamless fix of (0) flac16; Recording... (0) Possibly Shure M57s... (2) flac16; Source:... (1) flac16; SBD Master... (0) flac16; Source:... (0) flac16/48kHz;... (0) flac16; Source:... (0) flac16; MAV (Taped... (0) flac16; Matrix 2... (0) DTS Audio 5.1; SBD... (0) flac16/48kHz; Source... (0)
Date User Comment