Browse Collections Artists Sources   Search Dates

Add Show    List Management    Help


Grateful Dead 10/23/89
Charlotte Coliseum, Charlotte, NC
Comments Add Comment    Source Collectors    Add to Collection    Add to Want List    History
Source # 102771 Other Sources
Entered by dr.unclear
Checksums flac-md5 , ffp
Disc Counts 2 / 3
Media Size
Date Circulated
Date Added
11/22/2009
11/22/2009
Source Summary flac16; Matrix by Hunter Seamons using Final Cut Pro (FLAC>AIFF>Final Cut>WAV>FLAC)  
  Archive
Source Information - Download Text | Download Zip
Grateful Dead
Charlotte Coliseum
Charlotte, NC
October 23, 1989

Jerry Garcia - Lead Guitar, Vocals
Mickey Hart - Drums
Bill Kreutzmann - Drums
Phil Lesh - Electric Bass, Vocals
Brent Mydland - Keyboards, Vocals
Bob Weir - Rhythm Guitar, Vocals



*Matrix*


-----------------------------------------------------------------
SBD (shnid=83327):

Recording Info:
SBD -> Cassette Master (TDK MA-XG90)

Transfer Info:
Cassette Master (Tascam 122mkII) -> Apogee MiniMe (24bit/48k) ->
Samplitude Professional v8.01 -> FLAC/16
(3 Discs Audio / 2 Discs FLAC)

All Transfers and Mastering By Charlie Miller
[email protected]
January 25, 2007

Notes:
-- 2nd Set is seamless
-- Thanks to Paul Scotton and Joani Walker for the tapes
-- Tape flip at end of Terrapin Station right before Drums

-----------------------------------------------------------------
AUD (shnid=96922):

Source: Audience Recording
Lineage: Nak CM-300s with CP-4 caps (OTS on tall stand) > D-5 > MAC > Nak zx-7 > Tascam HD-P2 > 24/96 wave > wavelab 5 > plugs > r8brain pro > 16/44.1 wave > cd wave > flac 16 ( TLH lvl 8 )

- Taped by Greg Holtz (AKA garageboy)

- Transferred and Edited by Bgreen (AKA The Boss)

- Tracked, flac'ed, and packed by Evan K. (AKA Spaceboy The Great)


[2 minute cut in Drums, and first few seconds of Attics]

-----------------------------------------------------------------
Thank you to Charlie Miller for the SBD transfer,
to Greg Holtz for recording the show,
and to Brian Green and Evan K. for the AUD transfer.

Matrix by Hunter Seamons using Final Cut Pro (FLAC>AIFF>Final Cut>WAV>FLAC)
November 22, 2009



Set I
-----
d1t01 - Tuning
d1t02 - California Earthquake
d1t03 - Feel Like A Stranger
d1t04 - Loser
d1t05 - Walkin' Blues
d1t06 - Bertha ->
d1t07 - When I Paint My Masterpiece
d1t08 - Tennessee Jed
d1t09 - Let It Grow

Set II
-----
d2t01 - Tuning
d2t02 - Touch Of Grey ->
d2t03 - Looks Like Rain
d2t04 - We Can Run ->
d2t05 - Crazy Fingers ->
d2t06 - Terrapin Station ->
d2t07 - Drums ->
d3t01 - Space ->
d3t02 - I Will Take You Home ->
d3t03 - Goin' Down The Road, Feeling Bad ->
d3t04 - Standing On The Moon ->
d3t05 - Turn On Your Lovelight

Encore
------
d3t06 - Attics Of My Life



    length     expanded size    cdr  WAVE problems  fmt   ratio  filename
     1:46.40       18792524 B   ---   --   ---xx  gd89-10-23d1t01.flac
     5:50.04       61749452 B   ---   --   ---xx  gd89-10-23d1t02.flac
    10:03.48      106482140 B   ---   --   ---xx  gd89-10-23d1t03.flac
     7:10.62       75997868 B   ---   --   ---xx  gd89-10-23d1t04.flac
     8:33.63       90641420 B   ---   --   ---xx  gd89-10-23d1t05.flac
     6:46.06       71632556 B   ---   --   ---xx  gd89-10-23d1t06.flac
     6:04.37       64296668 B   ---   --   ---xx  gd89-10-23d1t07.flac
     8:36.74       91196492 B   ---   --   ---xx  gd89-10-23d1t08.flac
    13:07.52      138949148 B   ---   --   ---xx  gd89-10-23d1t09.flac
     2:17.60       24307964 B   ---   --   ---xx  gd89-10-23d2t01.flac
     6:44.30       71336204 B   ---   --   ---xx  gd89-10-23d2t02.flac
     9:13.64       97699772 B   ---   --   ---xx  gd89-10-23d2t03.flac
     6:53.26       72914396 B   ---   --   ---xx  gd89-10-23d2t04.flac
     8:11.45       86718284 B   ---   --   ---xx  gd89-10-23d2t05.flac
    15:01.60      159077564 B   ---   --   ---xx  gd89-10-23d2t06.flac
    10:04.18      106587980 B   ---   --   ---xx  gd89-10-23d2t07.flac
     8:20.45       88305884 B   ---   --   ---xx  gd89-10-23d3t01.flac
     4:54.27       51925148 B   ---   --   ---xx  gd89-10-23d3t02.flac
     7:35.34       80342012 B   ---   --   ---xx  gd89-10-23d3t03.flac
     8:51.20       93715484 B   ---   --   ---xx  gd89-10-23d3t04.flac
     7:24.03       78328700 B   ---   --   ---xx  gd89-10-23d3t05.flac
     5:50.05       61751804 B   ---   --   ---xx  gd89-10-23d3t06.flac
   169:22.73     1792749464 B                            0.6065  (22 files)
Show Checksums
flac-md5
4fce0781f99d529e6b8ebe1d6dc7963e *gd89-10-23d1t01.flac
851806b6a75692beb05e614e67a7b39f *gd89-10-23d1t02.flac
49f781cc51c3a3e39a2a51cde62f80a5 *gd89-10-23d1t03.flac
d34ed16880a6635d56ae03316d4232c2 *gd89-10-23d1t04.flac
ce5e098c663c2fcb4757ada8aa3f8ca3 *gd89-10-23d1t05.flac
bb55687abfac3a543b5700d7df9334cf *gd89-10-23d1t06.flac
087db60081daacf8d969f4e664b7c6f7 *gd89-10-23d1t07.flac
fd0624762c83773c9a1eb86fe8ed53af *gd89-10-23d1t08.flac
7f577b79f5fd7a4014b25716057b1e17 *gd89-10-23d1t09.flac
d315c10231891297e6ffb50b3f91c477 *gd89-10-23d2t01.flac
51d31be0af698b96ea53d6bd43be58ca *gd89-10-23d2t02.flac
0e7dd92388f2766f552927e54da5173c *gd89-10-23d2t03.flac
c99dd92a8e1555046e2da41fc98cb6fb *gd89-10-23d2t04.flac
3afd3cf24d2a9166e0027271e739df3a *gd89-10-23d2t05.flac
75db51731ac4af6257bc2d3cea60d5e6 *gd89-10-23d2t06.flac
eb50eeb830b7d564ea8debec5141d48c *gd89-10-23d2t07.flac
d031bc01f89cd30e9c717c490f3350ad *gd89-10-23d3t01.flac
c57a23985bc50cb9d3e1b4e10d42550b *gd89-10-23d3t02.flac
96c5043f7de7058c7b492c47eff1b804 *gd89-10-23d3t03.flac
89bdb9c21741ce49d9f8d1bb261134ce *gd89-10-23d3t04.flac
9c7a6ccfd30b237c86e564cb0ebe3d52 *gd89-10-23d3t05.flac
9e3f1908eb623a31fa932ba3037fbca9 *gd89-10-23d3t06.flac
ffp
gd89-10-23d1t01.flac:585b83f7fa8b5378070b4acfd971a123
gd89-10-23d1t02.flac:244a7668a7f067ee0bb38b497af7328a
gd89-10-23d1t03.flac:126c1ddd38793a61b6992b14bb9a751b
gd89-10-23d1t04.flac:88b94aed5bf2835285ec9d6ba656803b
gd89-10-23d1t05.flac:bd57ce4e7b01873ce474ffa6d36d8a99
gd89-10-23d1t06.flac:5df577a94c922f032bc38d8d2791ec47
gd89-10-23d1t07.flac:813acb33c4c4c3400172549dd702bbac
gd89-10-23d1t08.flac:74a91737b9432953d7bc09148e1f1234
gd89-10-23d1t09.flac:84b0416526dda397869818f02486740c
gd89-10-23d2t01.flac:7db1f4cb48e8380fc0a09ba30b615010
gd89-10-23d2t02.flac:bc74da960b3da25c3958f9e12da51795
gd89-10-23d2t03.flac:7bc826f814f301378af3ab0d6b3c9d1e
gd89-10-23d2t04.flac:5fbe31215c9a158703f7f7dea0c6f000
gd89-10-23d2t05.flac:336fa33bb42bed2b3b10cad6193f6910
gd89-10-23d2t06.flac:6e0b1e2eb3cbc19a652948b393b6da2f
gd89-10-23d2t07.flac:fd2c0a212279f69e4528af525997aab5
gd89-10-23d3t01.flac:f2e092b9628bd28107aa2170e8ab8d0f
gd89-10-23d3t02.flac:ad57b203a8083ba5ab3580639d601796
gd89-10-23d3t03.flac:d37c690e8ba4d27ad10882d97bcdb306
gd89-10-23d3t04.flac:c99c827a5ade6ffd7bdd48b81389f5a5
gd89-10-23d3t05.flac:b1c6065043389dd0b0195eb4e5ba73c3
gd89-10-23d3t06.flac:aa526564b26978d805fffc56344a4f93

Comments
Add Comment
Other Sources (comments)
SBD>Cassette Master> Sonic... (6) flac16; Recording... (0) flac16; Source:... (0) flac16: Master... (0) flac24: Master... (0) flac16; Source: Set... (0) flac16/48kHz; Source... (0)
Date User Comment