Browse Collections Artists Sources   Search Dates

Add Show    List Management    Help


Derek Trucks Band 11/27/99
Beacon Theater, New York, NY
Comments Add Comment    Source Collectors    Add to Collection    Add to Want List    History
Source # 103669 Other Sources
Entered by Steve Blanchard
Checksums ffp
Disc Counts 0 / 0
Media Size
Date Circulated
Date Added
09/10/07
12/16/2009
Source Summary MG M210 -> Oade P/S -> SBM 1, transfer: Tascam DA-20mkII -> Acoustic Research coax -> Audiophile 24/96 -> Wavelab 5.0 (record, 48>44.1) -> CD Wave (tracking) -> Audacity (fades) -> FLAC (6) 
Source Information - Download Text | Download Zip
Derek Trucks Band
Beacon Theater
New York, NY
November 27, 1999

-opening for Hot Tuna-

source:  MG M210 -> Oade P/S -> SBM 1
dat provided by: Brian Watson, via Todd Trego

transfer: Tascam DA-20mkII -> Acoustic Research coax -> Audiophile 24/96 -> Wavelab 5.0 (record, 48>44.1) -> CD Wave (tracking) -> Audacity (fades) -> FLAC (6)
transfer: Chris Davis (9/10/07)

One Set:     (44:02)

01.  (5:40)   Pleasant Garden
02.  (5:25)   555 Lake
03.  (4:43)   D Minor Blues
04.  (4:26)   Ain't That Loving You
05.  (7:01)   Forty-Four
06.  (10:01)  Rasta Man Chant
07.  (5:58)   Afro Blue
08.  (0:48)   outtro/band intros

dtb1999-11-27t01.flac:2d5e0d85a414dcd550902569b2d99e76
dtb1999-11-27t02.flac:6a06779325d75887356a96de90a5cc67
dtb1999-11-27t03.flac:2bbb49821a1312afb19c29d09e6b9b81
dtb1999-11-27t04.flac:08b2b3af92f4d7bbacbfa674f687927d
dtb1999-11-27t05.flac:0aa754b761a1b36306c74f51da7b78a6
dtb1999-11-27t06.flac:5d3cacb526d5746d1fa92534c7a319d1
dtb1999-11-27t07.flac:31cd614605487be935018a1e37013765
dtb1999-11-27t08.flac:75d7db3cbdda97e1e5851f5013c515d5


   length     expanded size    cdr  WAVE problems  fmt   ratio  filename
     5:40.45       60081884 B   ---   --   -----    wav  1.0000  dtb1999-11-27t01.wav
     5:25.26       57391196 B   ---   --   -----    wav  1.0000  dtb1999-11-27t02.wav
     4:43.36       50005916 B   ---   --   -----    wav  1.0000  dtb1999-11-27t03.wav
     4:26.42       47021228 B   ---   --   -----    wav  1.0000  dtb1999-11-27t04.wav
     7:01.53       74389100 B   ---   --   -----    wav  1.0000  dtb1999-11-27t05.wav
    10:01.70      106181084 B   ---   --   -----    wav  1.0000  dtb1999-11-27t06.wav
     5:58.49       63266492 B   ---   --   -----    wav  1.0000  dtb1999-11-27t07.wav
     0:48.71        8634236 B   ---   --   -----    wav  1.0000  dtb1999-11-27t08.wav
    44:07.17      466971136 B                            1.0000  (8 files)
Show Checksums
ffp
dtb1999-11-27t01.flac:2d5e0d85a414dcd550902569b2d99e76
dtb1999-11-27t02.flac:6a06779325d75887356a96de90a5cc67
dtb1999-11-27t03.flac:2bbb49821a1312afb19c29d09e6b9b81
dtb1999-11-27t04.flac:08b2b3af92f4d7bbacbfa674f687927d
dtb1999-11-27t05.flac:0aa754b761a1b36306c74f51da7b78a6
dtb1999-11-27t06.flac:5d3cacb526d5746d1fa92534c7a319d1
dtb1999-11-27t07.flac:31cd614605487be935018a1e37013765
dtb1999-11-27t08.flac:75d7db3cbdda97e1e5851f5013c515d5

Comments
Add Comment
Date User Comment