Browse Collections Artists Sources   Search Dates

Add Show    List Management    Help


Derek Trucks Band 11/11/00
Milestones, Rochester, NY
Comments Add Comment    Source Collectors    Add to Collection    Add to Want List    History
Source # 103672 Other Sources
Entered by Steve Blanchard
Checksums ffp
Disc Counts 0 / 0
Media Size
Date Circulated
Date Added
10/02/07
12/16/2009
Source Summary AKG C1000's -> SBM1 -> D8, taper: Ian Stone, transfer: Tascam DA-20mkII -> Acoustic Research coax -> Audiophile 24/96 -> Wavelab 5.0 (record, 48>44.1, fades) -> CD Wave -> FLAC(6), transfer: Chris Davis 
Source Information - Download Text | Download Zip
Derek Trucks Band
Milestones
Rochester, NY
November 11, 2000

source:  AKG C1000's -> SBM1 -> D8
taper:   Ian Stone

transfer: Tascam DA-20mkII -> Acoustic Research coax -> Audiophile 24/96 -> Wavelab 5.0 (record, 48>44.1, fades) -> CD Wave -> FLAC(6)
transfer: Chris Davis (10/1/07)

One Set:

Disc 1:     (73:25)
01.  (5:42)   Back at the Chicken Shack
02.  (4:25)   I Believe
03.  (7:36)   Cissy Strut
04.  (6:35)   Too High ->
05.  (7:09)   Big Head Salsa
06.  (6:22)   Kickin' Bach
07.  (1:17)   band intros
08.  (7:53)   Yeild Not to Temptation ->
09.  (7:23)   Evil Clown
10.  (13:11)  Maki Madni -> Rastaman Chant
11.  (5:52)   The Ghetto

Disc 2:     (19:48)
01.  (9:51)   Ain't That Lovin' You

Encore:
02.  (2:02)   crowd
03.  (7:55)   Chicken


    length     expanded size    cdr  WAVE problems  fmt   ratio  filename
     5:42.37       60415868 B   ---   --   -----    wav  1.0000  dtb2000-11-11d1t01.wav
     4:25.11       46771916 B   ---   --   -----    wav  1.0000  dtb2000-11-11d1t02.wav
     7:36.39       80530172 B   ---   --   -----    wav  1.0000  dtb2000-11-11d1t03.wav
     6:35.46       69786236 B   ---   --   -----    wav  1.0000  dtb2000-11-11d1t04.wav
     7:09.41       75772076 B   ---   --   -----    wav  1.0000  dtb2000-11-11d1t05.wav
     6:22.41       67481276 B   ---   --   -----    wav  1.0000  dtb2000-11-11d1t06.wav
     1:17.30       13653404 B   ---   --   -----    wav  1.0000  dtb2000-11-11d1t07.wav
     7:53.43       83538380 B   ---   --   -----    wav  1.0000  dtb2000-11-11d1t08.wav
     7:23.60       78286364 B   ---   --   -----    wav  1.0000  dtb2000-11-11d1t09.wav
    13:11.27      139595948 B   ---   --   -----    wav  1.0000  dtb2000-11-11d1t10.wav
     5:52.27       62156348 B   ---   --   -----    wav  1.0000  dtb2000-11-11d1t11.wav
     9:51.59      104391212 B   ---   --   -----    wav  1.0000  dtb2000-11-11d2t01.wav
     2:02.17       21560828 B   ---   --   -----    wav  1.0000  dtb2000-11-11d2t02.wav
     7:55.28       83855900 B   ---   --   -----    wav  1.0000  dtb2000-11-11d2t03.wav
    93:19.56      987795928 B                            1.0000  (14 files)


dtb2000-11-11d1t01.flac:73803bf61f757382d37d4a04a0faf4dc
dtb2000-11-11d1t02.flac:c21cab516a04ff1a53292c0604767eb4
dtb2000-11-11d1t03.flac:f90b173788764d0ce0e009e283470c51
dtb2000-11-11d1t04.flac:ab3cc8ca9882c377327fc729091ddcd0
dtb2000-11-11d1t05.flac:3a8cd61759d9dd375a752ddaf0aaa7be
dtb2000-11-11d1t06.flac:45ae04736bfd4b6fdebb2fd47bf42e5b
dtb2000-11-11d1t07.flac:7023cea48b13f06d012cebff56b16ed8
dtb2000-11-11d1t08.flac:6f1b173812dffdbbc07de920f08e77b9
dtb2000-11-11d1t09.flac:7c3d354f01ad40f373f88ae25a981b78
dtb2000-11-11d1t10.flac:d5809179358f48ed1f458c5f74e8291a
dtb2000-11-11d1t11.flac:149d082995b9dcb3f05796295c399766
dtb2000-11-11d2t01.flac:ce6d1f3723bff607a40c2472c19ab230
dtb2000-11-11d2t02.flac:d1429fd246773d2ea3ef2584960bb953
dtb2000-11-11d2t03.flac:e14e3f704d4bc630cb90ce107a828a92
Show Checksums
ffp
dtb2000-11-11d1t01.flac:73803bf61f757382d37d4a04a0faf4dc
dtb2000-11-11d1t02.flac:c21cab516a04ff1a53292c0604767eb4
dtb2000-11-11d1t03.flac:f90b173788764d0ce0e009e283470c51
dtb2000-11-11d1t04.flac:ab3cc8ca9882c377327fc729091ddcd0
dtb2000-11-11d1t05.flac:3a8cd61759d9dd375a752ddaf0aaa7be
dtb2000-11-11d1t06.flac:45ae04736bfd4b6fdebb2fd47bf42e5b
dtb2000-11-11d1t07.flac:7023cea48b13f06d012cebff56b16ed8
dtb2000-11-11d1t08.flac:6f1b173812dffdbbc07de920f08e77b9
dtb2000-11-11d1t09.flac:7c3d354f01ad40f373f88ae25a981b78
dtb2000-11-11d1t10.flac:d5809179358f48ed1f458c5f74e8291a
dtb2000-11-11d1t11.flac:149d082995b9dcb3f05796295c399766
dtb2000-11-11d2t01.flac:ce6d1f3723bff607a40c2472c19ab230
dtb2000-11-11d2t02.flac:d1429fd246773d2ea3ef2584960bb953
dtb2000-11-11d2t03.flac:e14e3f704d4bc630cb90ce107a828a92

Comments
Add Comment
Other Sources (comments)
Source: SBD > Tascam... (0)
Date User Comment