Browse Collections Artists Sources   Search Dates

Add Show    List Management    Help


Phish 06/22/00
Amsouth Amphitheatre, Antioch, TN
Comments Add Comment    Source Collectors    Add to Collection    Add to Want List    History
Source # 1038 Other Sources
Entered by Matt Vernon
Checksums shn-md5 , st5 , shn-md5-fix , st5-fixed
Disc Counts 0 / 3
Media Size
Date Circulated
Date Added
7/3/00
07/22/2000
Source Summary Schoeps CMC641 > Apogee AD-100 > DA-P1 > D8 (Taylor Caine's rig); Conversion: D8 > CMI8338 SPDIF (44.1k) > WAV > CDWAV > SHN (no DAE); patch and transfer by Stuart Gerber; reported level distortions on some tracks 
Source Information - Download Text | Download Zip
June 22, 2000
Amsouth Ampitheatre, Antioch, TN
Source: Schoeps CMC641 > Apogee AD-100 > DA-P1 > D8

Conversion: D8 > CMI8338 SPDIF (44.1k) > WAV > CDWAV > SHN (no DAE); by Stuart Gerber ([email protected])

Disc 1:

Set I
1. First Tube
2. Wolfman's Brother *
3. Beauty of My Dreams
4. Golgi Apparatus
5. Limb by Limb
6. Bug
7. Poor Heart
8. Roggae
9. Chalkdust Torture

Disc 2:

Set II
1. Gotta Jibboo
2. Also Sprach Zarathrustra (2001) >
3. Sand
4. Harry Hood >
5. Dog Faced Boy >
6. Harry Hood **

Disc 3:

Set II Cont.
1. Trey's intros
2. I'm Blue and Lonesome ***
3. Hold Whatcha Got ***#
4. Uncle Pen ***
5. Freebird ##

Encore
6. YEM

* -  with "Inna Gadda Da Vida" ending
** - with Ronnie McCoury on mandolin, Rob McCoury on banjo and Sam Bush on fiddle
*** - with Del McCoury on guitar, Ricky Skaggs on mandolin, Mike Bub on bass and Jason Carter on fiddle in addition to those already on stage (basically, the Del McCoury Band along with Sam Bush and Ricky Skaggs)
# -  Jimmy Martin and the Sunny Mountain Boys cover; first time played
## - with Wynonna Judd on vocals, Sam Bush on fiddle and Ronnie McCoury on mandolin and some guy dancing while wearing Wynnona's scarf; NOT a cappella - full band arrangement; prefaced by Wynnona announcing that it was the one year anniversary of her divorce settlement and that she wanted to celebrate


- - - - - shntool fix details by Terry Watts - - - - - -
Notes:

Minor text edits, files renamed, SHNTOOLs applied,
new MD5s created.

Terry Watts
http://db.etree.org/twatts

The original MD5:
6028a25131c62139908f936b2e02e495 *ph2000-06-22d1t01.shn
fc939032d53e98f76a86a9ff6cc3c64c *ph2000-06-22d1t02.shn
60082452331f2dc6736213900803b678 *ph2000-06-22d1t03.shn
02da6da0a21e7270d3efc5db0f1f0493 *ph2000-06-22d1t04.shn
3ed1c5cd956cc99680501bb039d2a133 *ph2000-06-22d1t05.shn
649c8958b32ea5cc13cfb2169ee5e61c *ph2000-06-22d1t06.shn
32b3886f25b16c6b6850172c62845fd5 *ph2000-06-22d1t07.shn
a8c368eaa360ffe14d77da2051c78298 *ph2000-06-22d1t08.shn
ccc1b6be23bfb4118c5f43c8de25324e *ph2000-06-22d1t09.shn
234a3eec0c9555ae702c621196e53006 *ph2000-06-22d2t01.shn
dfcf9c8cc19fe22f1d4c3a205ef162ea *ph2000-06-22d2t02.shn
acd7524dac0377d2aee1c99ddba7ac95 *ph2000-06-22d2t03.shn
95f444c56702ddd8649f888f61f2b812 *ph2000-06-22d2t04.shn
6b156c813c8d485b041c020918ae6861 *ph2000-06-22d2t05.shn
48024a91fbdbe10e0b3020bd5f47aaf3 *ph2000-06-22d2t06.shn
09db9303f40b4a33c0c01df9b0a5bd80 *ph2000-06-22d3t01.shn
41cc4df4cd7da5a9109eb617c6ea7570 *ph2000-06-22d3t02.shn
30f2ba3ab024def5f0bfb0e502b6ae0e *ph2000-06-22d3t03.shn
fec2d40edb5635428ddd01724ef00821 *ph2000-06-22d3t04.shn
9318fd112dd24364067af347457e84fe *ph2000-06-22d3t05.shn
b4033ac3cfb7ea81763d271d1abb645e *ph2000-06-22d3t06.shn

- - - -shntool fix details - - - - -

Microsoft Windows 2000 [Version 5.00.2195]
(C) Copyright 1985-2000 Microsoft Corp.

C:\programs>cd\programs\shntool

C:\programs\shntool>shntool len *.wav
    length     expanded size   cdr  WAVE problems filename
     8:03.52       85323548    ---   --   -----   ph2000-06-22d1t01.wav
    12:14.30      129548204    ---   --   -----   ph2000-06-22d1t02.wav
     2:49.60       29952764    ---   --   -----   ph2000-06-22d1t03.wav
     4:29.30       47522204    ---   --   -----   ph2000-06-22d1t04.wav
    12:17.02      130011548    ---   --   -----   ph2000-06-22d1t05.wav
     9:17.65       98407724    ---   --   -----   ph2000-06-22d1t06.wav
     2:28.58       26243020    -b-   --   -----   ph2000-06-22d1t07.wav
     7:54.18       83656620    -b-   --   -----   ph2000-06-22d1t08.wav
     9:46.28      103436268    -b-   --   -----   ph2000-06-22d1t09.wav
    12:08.60      128560364    ---   --   -----   ph2000-06-22d2t01.wav
     8:15.51       87437996    ---   --   -----   ph2000-06-22d2t02.wav
    11:23.22      120532988    ---   --   -----   ph2000-06-22d2t03.wav
     2:27.10       25954364    ---   --   -----   ph2000-06-22d2t04.wav
     2:19.06       24533756    ---   --   -----   ph2000-06-22d2t05.wav
    14:37.13      154733420    ---   --   -----   ph2000-06-22d2t06.wav
     3:01.01       31930796    ---   --   -----   ph2000-06-22d3t01.wav
     3:32.09       37418012    ---   --   -----   ph2000-06-22d3t02.wav
     4:53.27       51748748    ---   --   -----   ph2000-06-22d3t03.wav
     6:00.73       63675740    ---   --   -----   ph2000-06-22d3t04.wav
    13:26.13      142209020    ---   --   -----   ph2000-06-22d3t05.wav
    21:42.30      229742892    -b-   --   -----   ph2000-06-22d3t06.wav
   173:08.58     1832579996 B                     (totals for 21 files, 1.0000 overall compression ratio)

C:\programs\shntool>shntool fix *.wav
shntool [fix]: warning: no output format specified - assuming wav
shntool [fix]: warning: no shift direction specified - assuming backward shift
shntool [fix]: warning: skipping first 6 files because they would not be changed

ph2000-06-22d1t07.wav --> ph2000-06-22d1t07-fixed.wav ... done.
ph2000-06-22d1t08.wav --> ph2000-06-22d1t08-fixed.wav ... done.
ph2000-06-22d1t09.wav --> ph2000-06-22d1t09-fixed.wav ... done.
Padded 'ph2000-06-22d1t09-fixed.wav' with 32 zero-bytes.

C:\programs\shntool>shntool fix *.wav
shntool [fix]: warning: no output format specified - assuming wav
shntool [fix]: warning: no shift direction specified - assuming backward shift
shntool [fix]: warning: skipping first 11 files because they would not be changed
ph2000-06-22d3t06.wav --> ph2000-06-22d3t06-fixed.wav ... done.
ph2000-06-22d3t07-dummy.wav --> ph2000-06-22d3t07-dummy-fixed.wav ... done.
Padded 'ph2000-06-22d3t07-dummy-fixed.wav' with 1092 zero-bytes.

C:\programs\shntool>

- - - - fixed shntool len - - - -

    length     expanded size    cdr  WAVE problems  fmt   ratio  filename
     8:03.52       85323548 B   ---   --   ---xx    shn  0.6887  ph2000-06-22d1t01.shn
    12:14.30      129548204 B   ---   --   ---xx    shn  0.6469  ph2000-06-22d1t02.shn
     2:49.60       29952764 B   ---   --   ---xx    shn  0.6625  ph2000-06-22d1t03.shn
     4:29.30       47522204 B   ---   --   ---xx    shn  0.6753  ph2000-06-22d1t04.shn
    12:17.02      130011548 B   ---   --   ---xx    shn  0.6307  ph2000-06-22d1t05.shn
     9:17.65       98407724 B   ---   --   ---xx    shn  0.6488  ph2000-06-22d1t06.shn
     2:28.57       26241308 B   ---   --   ---xx    shn  0.6406  ph2000-06-22d1t07.shn
     7:54.19       83658332 B   ---   --   ---xx    shn  0.5859  ph2000-06-22d1t08.shn
     9:46.28      103436300 B   ---   --   ---xx    shn  0.7031  ph2000-06-22d1t09.shn
    12:08.60      128560364 B   ---   --   ---xx    shn  0.6406  ph2000-06-22d2t01.shn
     8:15.51       87437996 B   ---   --   ---xx    shn  0.5951  ph2000-06-22d2t02.shn
    11:23.22      120532988 B   ---   --   ---xx    shn  0.5730  ph2000-06-22d2t03.shn
     2:27.10       25954364 B   ---   --   ---xx    shn  0.5243  ph2000-06-22d2t04.shn
     2:19.06       24533756 B   ---   --   ---xx    shn  0.5146  ph2000-06-22d2t05.shn
    14:37.13      154733420 B   ---   --   ---xx    shn  0.6170  ph2000-06-22d2t06.shn
     3:01.01       31930796 B   ---   --   ---xx    shn  0.5506  ph2000-06-22d3t01.shn
     3:32.09       37418012 B   ---   --   ---xx    shn  0.5848  ph2000-06-22d3t02.shn
     4:53.27       51748748 B   ---   --   ---xx    shn  0.5830  ph2000-06-22d3t03.shn
     6:00.73       63675740 B   ---   --   ---xx    shn  0.6230  ph2000-06-22d3t04.shn
    13:26.13      142209020 B   ---   --   ---xx    shn  0.6447  ph2000-06-22d3t05.shn
    21:42.29      229741052 B   ---   --   ---xx    shn  0.5848  ph2000-06-22d3t06.shn
   173:08.57     1832578188 B                            0.6217  (21 files)


Show Checksums
shn-md5
fc939032d53e98f76a86a9ff6cc3c64c *ph00-06-22d1t02.shn
60082452331f2dc6736213900803b678 *ph00-06-22d1t03.shn
02da6da0a21e7270d3efc5db0f1f0493 *ph00-06-22d1t04.shn
3ed1c5cd956cc99680501bb039d2a133 *ph00-06-22d1t05.shn
649c8958b32ea5cc13cfb2169ee5e61c *ph00-06-22d1t06.shn
6028a25131c62139908f936b2e02e495 *ph00-06-22d1t01.shn
ccc1b6be23bfb4118c5f43c8de25324e *ph00-06-22d1t09.shn
32b3886f25b16c6b6850172c62845fd5 *ph00-06-22d1t07.shn
a8c368eaa360ffe14d77da2051c78298 *ph00-06-22d1t08.shn
95f444c56702ddd8649f888f61f2b812 *ph00-06-22d2t04.shn
dfcf9c8cc19fe22f1d4c3a205ef162ea *ph00-06-22d2t02.shn
acd7524dac0377d2aee1c99ddba7ac95 *ph00-06-22d2t03.shn
48024a91fbdbe10e0b3020bd5f47aaf3 *ph00-06-22d2t06.shn
234a3eec0c9555ae702c621196e53006 *ph00-06-22d2t01.shn
6b156c813c8d485b041c020918ae6861 *ph00-06-22d2t05.shn
09db9303f40b4a33c0c01df9b0a5bd80 *ph00-06-22d3t01.shn
41cc4df4cd7da5a9109eb617c6ea7570 *ph00-06-22d3t02.shn
30f2ba3ab024def5f0bfb0e502b6ae0e *ph00-06-22d3t03.shn
fec2d40edb5635428ddd01724ef00821 *ph00-06-22d3t04.shn
9318fd112dd24364067af347457e84fe *ph00-06-22d3t05.shn
b4033ac3cfb7ea81763d271d1abb645e *ph00-06-22d3t06.shn
st5
59e313f3a6f6046d60319e0ae0b30793 [shntool] ph00-06-22d1t01.shn
1bdb533d6701f2d500b1450b7c2db9a6 [shntool] ph00-06-22d1t02.shn
6a14b344e4ec772fec91284e2883b257 [shntool] ph00-06-22d1t03.shn
22fd843ccc54ca54cd83c7c099d9f21b [shntool] ph00-06-22d1t04.shn
e2e3e832022280e62931aaf6ed19d976 [shntool] ph00-06-22d1t05.shn
8e35033102c061e6fb6337120f969bff [shntool] ph00-06-22d1t06.shn
d6ac4f44039b04bf7d518712c0463448 [shntool] ph00-06-22d1t07.shn
705f7b04b32aa3097ee71b11e842b14d [shntool] ph00-06-22d1t08.shn
21cfa902dcf0e7fa6cb0f20e7168643f [shntool] ph00-06-22d1t09.shn
fed1593a0bb4eff256724fd6efa8682f [shntool] ph00-06-22d2t01.shn
c9b275959ce75900bcfdc63ea87bc4c7 [shntool] ph00-06-22d2t02.shn
02b16330b3f9d6f56851c3fc63b32f05 [shntool] ph00-06-22d2t03.shn
e89febbf90fd0c5919379212b2679fc5 [shntool] ph00-06-22d2t04.shn
6ad7a565b62e435302ff4c6b16c4e7fe [shntool] ph00-06-22d2t05.shn
68dfc703d96bbbd01678eb4b1f317437 [shntool] ph00-06-22d2t06.shn
70d3a946999db1fbbdd0a8f75d2afa76 [shntool] ph00-06-22d3t01.shn
7467b0edc2ea839a5143ae0cc565c3b6 [shntool] ph00-06-22d3t02.shn
da9ce91f13d46d71015c7c8a0ed65113 [shntool] ph00-06-22d3t03.shn
00b328b8f73c1bb287c2686c93684ad3 [shntool] ph00-06-22d3t04.shn
745b99223fdf1c346097b07df2c3197d [shntool] ph00-06-22d3t05.shn
5a148eb7594f0351be641dd18152622f [shntool] ph00-06-22d3t06.shn
shn-md5-fix
f0ff72aa394ce31d4e80b5dd7ce5747e *ph2000-06-22d1t01.shn
ed8af8afb6037e1a579d8f9a1a2a28a5 *ph2000-06-22d1t02.shn
997881e8dfb7686da512d699d55982e3 *ph2000-06-22d1t03.shn
b8fe77abe52c6bed9bca5af18317436c *ph2000-06-22d1t04.shn
7a24c437ccfa228db1affa3806c310d5 *ph2000-06-22d1t05.shn
0fbf483cbd03643d9790bfa83437c0ef *ph2000-06-22d1t06.shn
07e699e4f7d3a8696da79e0330c86ba5 *ph2000-06-22d1t07.shn
c5421b2c63ab39e22707f1fe960f1934 *ph2000-06-22d1t08.shn
2cab033486e7f6e134c0786fe505f5d7 *ph2000-06-22d1t09.shn
f5cea17d28ab2a72b84bfa35e90a103a *ph2000-06-22d2t01.shn
8bfaffbebfcdb2074148e71964272cca *ph2000-06-22d2t02.shn
edad6d0df7bc4e6952446d7756d922e9 *ph2000-06-22d2t03.shn
0dd4db93d08adc8904d2f27dad04a861 *ph2000-06-22d2t04.shn
1eadaa5f51abd811304df1946b0f3f84 *ph2000-06-22d2t05.shn
849996e1b35f124d2c9eacce37727f9c *ph2000-06-22d2t06.shn
359fd95d7e6472ce9427b667ebe49b18 *ph2000-06-22d3t01.shn
69f11b68018515946d081bedd28542c7 *ph2000-06-22d3t02.shn
23edaf947d6afd73e7a0651b25dd1395 *ph2000-06-22d3t03.shn
23739ca4ceaee5ae0e583564e70b4aab *ph2000-06-22d3t04.shn
6b5bca8b20d9a77cf721e39f964f6595 *ph2000-06-22d3t05.shn
90aee9e62cff8dd3e21f7126cd19a5e3 *ph2000-06-22d3t06.shn
st5-fixed
59e313f3a6f6046d60319e0ae0b30793 [shntool] ph2000-06-22d1t01.shn
1bdb533d6701f2d500b1450b7c2db9a6 [shntool] ph2000-06-22d1t02.shn
6a14b344e4ec772fec91284e2883b257 [shntool] ph2000-06-22d1t03.shn
22fd843ccc54ca54cd83c7c099d9f21b [shntool] ph2000-06-22d1t04.shn
e2e3e832022280e62931aaf6ed19d976 [shntool] ph2000-06-22d1t05.shn
8e35033102c061e6fb6337120f969bff [shntool] ph2000-06-22d1t06.shn
e1b87df3c768df5476603b66da66cdf6 [shntool] ph2000-06-22d1t07.shn
342cec72a679393452d5c9f8a47c3c80 [shntool] ph2000-06-22d1t08.shn
b0dee669f9856eb1676162fe9a433414 [shntool] ph2000-06-22d1t09.shn
fed1593a0bb4eff256724fd6efa8682f [shntool] ph2000-06-22d2t01.shn
c9b275959ce75900bcfdc63ea87bc4c7 [shntool] ph2000-06-22d2t02.shn
02b16330b3f9d6f56851c3fc63b32f05 [shntool] ph2000-06-22d2t03.shn
e89febbf90fd0c5919379212b2679fc5 [shntool] ph2000-06-22d2t04.shn
6ad7a565b62e435302ff4c6b16c4e7fe [shntool] ph2000-06-22d2t05.shn
68dfc703d96bbbd01678eb4b1f317437 [shntool] ph2000-06-22d2t06.shn
70d3a946999db1fbbdd0a8f75d2afa76 [shntool] ph2000-06-22d3t01.shn
7467b0edc2ea839a5143ae0cc565c3b6 [shntool] ph2000-06-22d3t02.shn
da9ce91f13d46d71015c7c8a0ed65113 [shntool] ph2000-06-22d3t03.shn
00b328b8f73c1bb287c2686c93684ad3 [shntool] ph2000-06-22d3t04.shn
745b99223fdf1c346097b07df2c3197d [shntool] ph2000-06-22d3t05.shn
d2f9685d54c976c25057b5e863d5f516 [shntool] ph2000-06-22d3t06.shn

Comments
Add Comment
Other Sources (comments)
AKG 480/ck63 > Graham... (3) Neumann KM140> Sonosax>... (1) Schoeps M222/MK4V > NT222 >... (2) flac16; Schoeps... (0) flac16; Schoeps... (0)
Date User Comment
08/16/2000 tom got this disc thru a trade and i'm hearing the distortion as well.
don't remember the tracks, but definently went the music gets loud there's some crackling.
bummer...
12/16/2000 David Why is it that all Phish recordings sound like they were recorded in a can??? This one is no acception!!! Where is the fidelity shn heads????
02/12/2001 john stout There's better DAUDs of Phish out there, that's for sure, even from this tour - too much crowd in this one, too much brittle top-end.
03/13/2002 Lucas Lorenz I will agree that this seed has sonic flaws. The distortion is especially prevelant in the midranges (esp. Trey's guitar and the fiddle during Freebird). Just from reading the info files it looks like the Neumann seed might be better...can anyone comment that's heard both?!?!?
08/25/2005 Terry Watts My MD5s after doing a "fix" with SHNTOOLs:
f0ff72aa394ce31d4e80b5dd7ce5747e *ph2000-06-22d1t01.shn
ed8af8afb6037e1a579d8f9a1a2a28a5 *ph2000-06-22d1t02.shn
997881e8dfb7686da512d699d55982e3 *ph2000-06-22d1t03.shn
b8fe77abe52c6bed9bca5af18317436c *ph2000-06-22d1t04.shn
7a24c437ccfa228db1affa3806c310d5 *ph2000-06-22d1t05.shn
0fbf483cbd03643d9790bfa83437c0ef *ph2000-06-22d1t06.shn
07e699e4f7d3a8696da79e0330c86ba5 *ph2000-06-22d1t07.shn
c5421b2c63ab39e22707f1fe960f1934 *ph2000-06-22d1t08.shn
2cab033486e7f6e134c0786fe505f5d7 *ph2000-06-22d1t09.shn
f5cea17d28ab2a72b84bfa35e90a103a *ph2000-06-22d2t01.shn
8bfaffbebfcdb2074148e71964272cca *ph2000-06-22d2t02.shn
edad6d0df7bc4e6952446d7756d922e9 *ph2000-06-22d2t03.shn
0dd4db93d08adc8904d2f27dad04a861 *ph2000-06-22d2t04.shn
1eadaa5f51abd811304df1946b0f3f84 *ph2000-06-22d2t05.shn
849996e1b35f124d2c9eacce37727f9c *ph2000-06-22d2t06.shn
359fd95d7e6472ce9427b667ebe49b18 *ph2000-06-22d3t01.shn
69f11b68018515946d081bedd28542c7 *ph2000-06-22d3t02.shn
23edaf947d6afd73e7a0651b25dd1395 *ph2000-06-22d3t03.shn
23739ca4ceaee5ae0e583564e70b4aab *ph2000-06-22d3t04.shn
6b5bca8b20d9a77cf721e39f964f6595 *ph2000-06-22d3t05.shn
90aee9e62cff8dd3e21f7126cd19a5e3 *ph2000-06-22d3t06.shn