Browse Collections Artists Sources   Search Dates

Add Show    List Management    Help


Phish 05/23/00
Roseland Ballroom, New York, NY
Comments Add Comment    Source Collectors    Add to Collection    Add to Want List    History
Source # 1054 Other Sources
Entered by Matt Vernon
Checksums shn-st5 , shn-md5
Disc Counts 2 / 3
Media Size
Date Circulated
Date Added
6/19/00
07/17/2000
Source Summary B&K 4011'S (Ron Dalton's rig)> LUNATEC V2> APOGEE AD500> DAP-1 (patched in); transfer via ZA2, by Jimmy Sellers; to offer 
Source Information - Download Text | Download Zip
PHiSH
Roseland Ballroom - Taped for VH1's Hard Rock Live
05/23/2000 Roseland Ballroom - New York, New York

source: B&K 4011's>lunatec v2>apogee ad500
transfered: tascam da20 mkII>za2>wav>shn using soundforge and cdwav.

enjoy!!!!
jimmy sellers
[email protected]

disc 1:
Set I (1:40):
1.AC/DC Bag
2.Wilson
3.First Tube
4.Ya Mar >
5.Mike's Song ->
6.Simple* >
7.It's Ice
8.When The Circus Comes

disc 2
1.Back On The Train
2.Gotta Jibboo
3.Taste
4.Sleeping Monkey
Set II (1:40):
5.Punch You In The Eye
6.Twist
7.Waste
8.Piper

disc 3:
1.You Enjoy Myself**
2.Run Like n Antelope
3.Train Song
4.Bug
Encore:
5.Boogie On Reggae Woman
7.Cavern

* - "Weekapaug Groove" was not played
** - w/vocal jam

- - - -shntool timings added by mvernon 5/19/17 - - - -
- - - sbe are at end of sets - - - -

    length     expanded size    cdr  WAVE problems  fmt   ratio  filename
     9:30.70      100712684 B   ---   --   ---xx    shn  0.5927  ph00-05-23d1t01.shn
     7:28.11       79053116 B   ---   --   ---xx    shn  0.6001  ph00-05-23d1t02.shn
     8:30.10       89987564 B   ---   --   ---xx    shn  0.6395  ph00-05-23d1t03.shn
    15:58.01      168993596 B   ---   --   ---xx    shn  0.5637  ph00-05-23d1t04.shn
     7:03.15       74652524 B   ---   --   ---xx    shn  0.6312  ph00-05-23d1t05.shn
     8:25.72       89251388 B   ---   --   ---xx    shn  0.6047  ph00-05-23d1t06.shn
     9:10.46       97128236 B   ---   --   ---xx    shn  0.5793  ph00-05-23d1t07.shn
     5:35.63       59242220 B   ---   --   ---xx    shn  0.5346  ph00-05-23d1t08.shn
     5:33.69       58903532 B   ---   --   ---xx    shn  0.5743  ph00-05-23d2t01.shn
    10:46.74      114128492 B   ---   --   ---xx    shn  0.6060  ph00-05-23d2t02.shn
    10:18.41      109111676 B   ---   --   ---xx    shn  0.5944  ph00-05-23d2t03.shn
     5:59.01       63330092 B   -b-   --   ---xx    shn  0.5566  ph00-05-23d2t04.shn
     8:50.12       93520268 B   ---   --   ---xx    shn  0.5883  ph00-05-23d2t05.shn
    10:41.18      113114780 B   ---   --   ---xx    shn  0.5803  ph00-05-23d2t06.shn
     7:24.46       78429836 B   ---   --   ---xx    shn  0.5523  ph00-05-23d2t07.shn
     9:20.30       98854604 B   ---   --   ---xx    shn  0.6010  ph00-05-23d2t08.shn
    19:08.65      202660124 B   ---   --   ---xx    shn  0.5183  ph00-05-23d3t01.shn
    13:19.50      141061244 B   ---   --   ---xx    shn  0.6063  ph00-05-23d3t02.shn
     3:17.01       34753196 B   ---   --   ---xx    shn  0.4487  ph00-05-23d3t03.shn
    13:17.18      140633180 B   ---   --   ---xx    shn  0.5653  ph00-05-23d3t04.shn
     5:36.65       59423324 B   ---   --   ---xx    shn  0.5615  ph00-05-23d3t05.shn
     6:55.60       73346364 B   -b-   --   ---xx    shn  0.6291  ph00-05-23d3t06.shn
   202:13.13     2140292040 B                            0.5796  (22 files)


Show Checksums
shn-st5
177f684debcf918312a23a20a1c5255b [shntool] ph00-05-23d1t01.shn
38ada5456beb4dda2e67d0cb2375ffbd [shntool] ph00-05-23d1t02.shn
2908fd9d910e31df2526a3d05fbdc1e4 [shntool] ph00-05-23d1t03.shn
236551e0f2df1a9ae72441a16b69e1ca [shntool] ph00-05-23d1t04.shn
8e9346312ed3e4f1bfd4c55588442fa7 [shntool] ph00-05-23d1t05.shn
de2f0904b68fd3b31eafcd2be00157ed [shntool] ph00-05-23d1t06.shn
bce05891d4f0b4a14b205242f2bf2705 [shntool] ph00-05-23d1t07.shn
546d98063ddec1d250dbdb8726b5bfe5 [shntool] ph00-05-23d1t08.shn
7439f836d548b6de2647533247fb6721 [shntool] ph00-05-23d2t01.shn
162834d23e14e987bb848142aa89f9d1 [shntool] ph00-05-23d2t02.shn
888cecbdafc11fa47505dcfd65f17009 [shntool] ph00-05-23d2t03.shn
8f8a9928682a054c757d70a2c226322d [shntool] ph00-05-23d2t04.shn
f3bcdad91f108de5353056271492f59d [shntool] ph00-05-23d2t05.shn
2980612edc1ddd5143f78ebcd4d86035 [shntool] ph00-05-23d2t06.shn
8024b18f3127f1bf94c9ca9294a314de [shntool] ph00-05-23d2t07.shn
7f4fe7fc0cb2872acec9576e4423b0e8 [shntool] ph00-05-23d2t08.shn
6ce780f6dd73bcd6477308187614c9a6 [shntool] ph00-05-23d3t01.shn
21e9bb827795753335536a6cfafdd73e [shntool] ph00-05-23d3t02.shn
39af82dcf4b4806069177aed77ed0709 [shntool] ph00-05-23d3t03.shn
7dcaa72bd0f06e8b63314140a6c396f4 [shntool] ph00-05-23d3t04.shn
598b291caeb90e33ea2ec032e9da8272 [shntool] ph00-05-23d3t05.shn
efb7eb515beb6186029c79078bf513f4 [shntool] ph00-05-23d3t06.shn
shn-md5
03365262df0e10d4d74a6cc04d11e218 *ph00-05-23d1t06.shn
463258cbb846dfd1e8a96895863c6250 *ph00-05-23d1t02.shn
d118abf827e8e58d61f06dd9682c4851 *ph00-05-23d1t03.shn
6726080dcd2adf955907c661002ee198 *ph00-05-23d1t04.shn
32ebbdc886a1515c02e277c1f7b0b0ec *ph00-05-23d1t05.shn
294d91e552dcf467ef2d906073bde98e *ph00-05-23d1t01.shn
2ffe0f8384755996562707b4fa7e3ec1 *ph00-05-23d1t07.shn
98f1303cc0fe386b6ed3065b93bf5a2b *ph00-05-23d1t08.shn
71619abc307458d8ae01b246fef992db *ph00-05-23d2t05.shn
32dc1ba7cb2156c0377d0835a2ca0581 *ph00-05-23d2t02.shn
6e666a9aeaeccb27e977d7ee1480eede *ph00-05-23d2t03.shn
a7ebd1915f1fd515c9499e321768e1f7 *ph00-05-23d2t04.shn
e5fef6f5e7c683f5207ec16eeda9ff00 *ph00-05-23d2t01.shn
69ce7ddcb436c6c2724534fbb3b0c82c *ph00-05-23d2t06.shn
f67f6252117ea3b8705952cc2d0269d9 *ph00-05-23d2t07.shn
498533dd946abb59bff65210ec912d09 *ph00-05-23d2t08.shn
c9390cfa2094b4a7a99ab309a6780b39 *ph00-05-23d3t03.shn
f18cfe3f0058d41e426573c61f9d6c0f *ph00-05-23d3t02.shn
6038d34965d93d2c16e976d5f4de7e8f *ph00-05-23d3t01.shn
0e542f80d6574828c53e5d6c9042bde6 *ph00-05-23d3t04.shn
04c161a0aca8f24f573848140427e8ed *ph00-05-23d3t05.shn
d6ea29cc5254a42ef2bc7594b3785b9d *ph00-05-23d3t06.shn

Comments
Add Comment
Other Sources (comments)
via lemon2; no info file-... (0) Schoeps m222 (tubes)/mk41>... (2) 3-disc retracking of I.... (2) FOB Schoeps mk4 > kc5 >... (0) SBD > CD; CD > EAC > WAV >... (7) SBD > DAT(?) > cd > eac > flac (5) (soundcheck only) Schoeps... (0) B&K 4021 > Apogee AD-1000 >... (0) (FOB) Schoeps mk4 > kc5 >... (0) SBD/AUD matrix; mixed by... (0) flac16; Cable TV... (0)
Date User Comment
07/17/2000 Eric McRoberts For the public record, I did not transfer or encode this show from this source. I supplied clones of my da-p1 patch masters to Jimmy Sellers and i think he transfered them, but I'm not sure. I just don't like seeing my name tagged on something I didn' do...
This source is one of the better of the ots recordings though...as long as the cds are not flawed it is worth checking out...but, the btp is better imho.

-Eric McRoberts
05/19/2017 mvernon On 5/19/17 I added the info file and checksums. I received this source directly from Jimmy Sellers in May 2017.
The only changes are I created st5 checksums and added the shntool timing output to the info file.
The sbe's are at end of sets.