Browse Collections Artists Sources   Search Dates

Add Show    List Management    Help


Old & In The Way 06/06/73
Capitol Theater, Passaic, NJ
Comments Add Comment    Source Collectors    Add to Collection    Add to Want List    History
Source # 105568 Other Sources
Entered by Joe Jupille
Checksums ffp
Disc Counts 0 / 0
Media Size
Date Circulated
Date Added
01/21/2010
01/21/2010
Source Summary flac2496: 7" 1/2 track master soundboard reels @ 7.5ips > Sony TC-388 (4-track) playback > Revox A77 1st gen reel (no Dolby) > AKAI GX-625 playback > Apogee Mini Me @ 24 bit/96K > Apogee Mini DAC (for monitoring) > Lynx One soundcard > Wavelab 5.0 > wav fileset > GEMS editing > FLAC. 
Source Information - Download Text | Download Zip
Old and In The Way
Capitol Theater
Passaic, NJ
June 6, 1973

http://db.etree.org/shn/105568

**24 bit audio**  
A FRESH Matt Smith 24bit 96kHz Reel Transfer
January 2010

Note this is a fresh transfer and differs from shnid 84446
The 84446 transfer saw the Apogee limiter being pushed hard
to make CDR's

This transfer was purposely meant to capture the dynamics
of the recording and to master and release a 24 bit file set.


Lineage notes from Pat Lee:
"The MR was recorded half track at 7.5 IPS which I believe is the
format used for Nagra decks. The playback deck we used was a
Sony TC-388 reel which in 4 track mode plays back both tracks even
though it uses a 1/4 track methodology. The 1/4 track head does
not fully capture the width of a 1/2 track recording thus not
maximizing the transfer possibilities. We should have used a half-track
machine even though we did not have access to one and were also
dealing with some time pressure."

Lineage notes from Matt Smith:
"The lineage goes:4 track [email protected] 71/2 ips.>1/4 track Revox A77(black Maxell
UDXLII reel tape)@7 1/2 ips.  Both Will Boswell and Pat Lee dubbed
these at the same time back in 1979.  Quite a score back then i'd say!!  
You can HEAR all the bandmembers grinnin' from ear to ear!!"

Lineage
7" 1/2 track master soundboard reels @ 7.5ips > Sony TC-388 (4-track)
playback > Revox A77 1st gen reel (no Dolby) > AKAI GX-625 playback >
Apogee Mini Me @ 24 bit/96K > Apogee Mini DAC (for monitoring) > Lynx
One soundcard > Wavelab 5.0 > wav fileset

Editing and Mastering by Jamie Waddell
on the **GEMS** Edit Station  
FLAC24 level 8

Tag & Rename for metadata by bluedakota ([email protected])

jpeg's of the show review and ads included in torrent folder

a **GEMS** Production seeded 01-21-10  www.shnflac.net

Set 1
Track1   | 0:56 |  Talk & Tuning
Track2   | 2:55 |  Roanoke (*)  
Track3   | 2:56 |  Going To The Races  
Track4   | 6:55 |  The Willow Garden  
Track5   | 2:39 |  'Til The End Of The World Rolls 'Round  
Track6   | 9:40 |  Land Of The Navajo  
Track7   | 4:37 |  Fanny Hill  
Track8   | 5:43 |  Down Where The River Bends  
Track9   | 2:55 |  Love Please Come Home  
Track10  | 3:34 |  Lost  
Track11  | 3:21 |  Knockin' On Your Door
Track12  | 1:49 |  Band Introductions  
Track13  | 0:47 |  Pig in a Pen// (cuts out)
Track14  | 5:57 |  Hobo Song  
Track15  | 5:36 |  Billy In The Low Ground (*)  
Track16  | 2:19 |  Monroe's Hornpipe (*)  
Track17  | 3:05 |  Uncle Pen (*)
Track18  | 3:35 |  Cotton-Eyed Joe (*)  

Set 2
Track19  | 4:02 |  Panama Red  
Track20  | 3:23 |  Hard Hearted  
Track21  | 3:51 |  Working On A Building  
Track22  | 4:45 |  White Dove  
Track23  | 4:40 |  Swing Low (Sweet Chariot)  
Track24  | 5:10 |  Wild Horses
Track25  | 2:03 |  Talk and Tuning//  
missing    Lonesome L.A. Cowboy
missing            Blue Mule

Lineup:
Jerry Garcia - banjo, vocals
John Kahn - bass
David Grisman - mandolin, vocals
Peter Rowan - guitar, vocals
Vassar Clements - fiddle

Notes
- Thanks to Taperpat and Matt for their generosity in respectively
supplying and transferring these tapes.

- (*) Tex Logan on fiddle


shntool 3.0.4
Copyright (C) 2000-2007 Jason Jordan

    length     expanded size    cdr  WAVE problems  fmt   ratio  filename
     0:56.038      32277716 B   cxx   --   ---xx   flac  0.5396  jg1973-06-06.OAITW.sbd.smith.gems.track01.flac
     2:54.832     100703276 B   cxx   --   ---xx   flac  0.6192  jg1973-06-06.OAITW.sbd.smith.gems.track02.flac
     2:56.020     101387708 B   cxx   --   ---xx   flac  0.6227  jg1973-06-06.OAITW.sbd.smith.gems.track03.flac
     6:55.465     239307812 B   cxx   --   ---xx   flac  0.5843  jg1973-06-06.OAITW.sbd.smith.gems.track04.flac
     2:39.317      91766852 B   cxx   --   ---xx   flac  0.5973  jg1973-06-06.OAITW.sbd.smith.gems.track05.flac
     9:40.332     334270988 B   cxx   --   ---xx   flac  0.5882  jg1973-06-06.OAITW.sbd.smith.gems.track06.flac
     4:37.052     159582068 B   cxx   --   ---xx   flac  0.6034  jg1973-06-06.OAITW.sbd.smith.gems.track07.flac
     5:42.571     197321084 B   cxx   --   ---xx   flac  0.5886  jg1973-06-06.OAITW.sbd.smith.gems.track08.flac
     2:55.120     100869092 B   cxx   --   ---xx   flac  0.5914  jg1973-06-06.OAITW.sbd.smith.gems.track09.flac
     3:33.916     123215444 B   cxx   --   ---xx   flac  0.5930  jg1973-06-06.OAITW.sbd.smith.gems.track10.flac
     3:20.692     115598492 B   cxx   --   ---xx   flac  0.6035  jg1973-06-06.OAITW.sbd.smith.gems.track11.flac
     1:48.792      62664380 B   cxx   --   ---xx   flac  0.5794  jg1973-06-06.OAITW.sbd.smith.gems.track12.flac
     0:47.456      27334988 B   cxx   --   ---xx   flac  0.5563  jg1973-06-06.OAITW.sbd.smith.gems.track13.flac
     5:56.873     205558964 B   cxx   --   ---xx   flac  0.5725  jg1973-06-06.OAITW.sbd.smith.gems.track14.flac
     5:35.503     193249772 B   cxx   --   ---xx   flac  0.5817  jg1973-06-06.OAITW.sbd.smith.gems.track15.flac
     2:18.566      79813988 B   cxx   --   ---xx   flac  0.5908  jg1973-06-06.OAITW.sbd.smith.gems.track16.flac
     3:04.748     106415108 B   cxx   --   ---xx   flac  0.5665  jg1973-06-06.OAITW.sbd.smith.gems.track17.flac
     3:34.957     123815204 B   cxx   --   ---xx   flac  0.5928  jg1973-06-06.OAITW.sbd.smith.gems.track18.flac
     4:02.495     139677092 B   cxx   --   ---xx   flac  0.5648  jg1973-06-06.OAITW.sbd.smith.gems.track19.flac
     3:22.989     116921492 B   cxx   --   ---xx   flac  0.5780  jg1973-06-06.OAITW.sbd.smith.gems.track20.flac
     3:51.121     133125596 B   cxx   --   ---xx   flac  0.5674  jg1973-06-06.OAITW.sbd.smith.gems.track21.flac
     4:44.672     163970900 B   cxx   --   ---xx   flac  0.5626  jg1973-06-06.OAITW.sbd.smith.gems.track22.flac
     4:40.029     161296676 B   cxx   --   ---xx   flac  0.5973  jg1973-06-06.OAITW.sbd.smith.gems.track23.flac
     5:10.237     178696772 B   cxx   --   ---xx   flac  0.5831  jg1973-06-06.OAITW.sbd.smith.gems.track24.flac
     2:02.800      70732916 B   cxx   --   ---xx   flac  0.5632  jg1973-06-06.OAITW.sbd.smith.gems.track25.flac
    97:12.592    3359574380 B                            0.5852  (25 files)
Show Checksums
ffp
jg1973-06-06.OAITW.sbd.smith.gems.track01.flac:72521dcb60a3ad367251fed8fc7b1a51
jg1973-06-06.OAITW.sbd.smith.gems.track02.flac:935f9302a48f922050b9b37e77e4f5ba
jg1973-06-06.OAITW.sbd.smith.gems.track03.flac:a263eab4de8280ca5c1862ff0eeef8fd
jg1973-06-06.OAITW.sbd.smith.gems.track04.flac:2aad13c774fbda2f904dbe17d68c06d4
jg1973-06-06.OAITW.sbd.smith.gems.track05.flac:b8a2a0aca5425727e20a34cd30cc2b93
jg1973-06-06.OAITW.sbd.smith.gems.track06.flac:e7942d0cf7e9456b323fe6be128f5ea4
jg1973-06-06.OAITW.sbd.smith.gems.track07.flac:f65f95a38a09a9f9c72ba972d9376d31
jg1973-06-06.OAITW.sbd.smith.gems.track08.flac:50a2594bf0ebe5ef7e26deafc39a053c
jg1973-06-06.OAITW.sbd.smith.gems.track09.flac:709e037af522b34b8ad4a254a23c3db3
jg1973-06-06.OAITW.sbd.smith.gems.track10.flac:227097e09f0495ac45877af0f3e6ae5e
jg1973-06-06.OAITW.sbd.smith.gems.track11.flac:c88ac2835e012b3fd6b3fa0f9349cccd
jg1973-06-06.OAITW.sbd.smith.gems.track12.flac:9ba4aebe576a6d576b5795fd0fd30c4a
jg1973-06-06.OAITW.sbd.smith.gems.track13.flac:db9df2b53761b5570754a4f68031af86
jg1973-06-06.OAITW.sbd.smith.gems.track14.flac:5acf49f60f34fea8efc607b654a2e5ed
jg1973-06-06.OAITW.sbd.smith.gems.track15.flac:73eede1d05e736b2b9713c095b17f5b5
jg1973-06-06.OAITW.sbd.smith.gems.track16.flac:c134368765c7f151a14976ef990eb6f4
jg1973-06-06.OAITW.sbd.smith.gems.track17.flac:ddc70c282f0b66303ed92ff490f809c4
jg1973-06-06.OAITW.sbd.smith.gems.track18.flac:d6cf0c876a6481aa7edba037ddbb9571
jg1973-06-06.OAITW.sbd.smith.gems.track19.flac:d1a7573cc49e3bfb126acb9b6b254c4e
jg1973-06-06.OAITW.sbd.smith.gems.track20.flac:20ece7f2ea624a85cfa34137e9d087b2
jg1973-06-06.OAITW.sbd.smith.gems.track21.flac:55f5faa01f6cfd551532f417849b428f
jg1973-06-06.OAITW.sbd.smith.gems.track22.flac:564ec7bd0988dd50d18a8a60be4a9612
jg1973-06-06.OAITW.sbd.smith.gems.track23.flac:437f9d418d25009aa4647073309a4c32
jg1973-06-06.OAITW.sbd.smith.gems.track24.flac:3d1016447a83dc6596846b6737c5d21e
jg1973-06-06.OAITW.sbd.smith.gems.track25.flac:7104e171e61906c800d897d33d169d38

Comments
Add Comment
Date User Comment