Browse Collections Artists Sources   Search Dates

Add Show    List Management    Help


Trey Anastasio 02/12/10
House of Blues, Boston, MA
Comments Add Comment    Source Collectors    Add to Collection    Add to Want List    History
Source # 106050 Other Sources
Entered by Jason Sobel
Checksums 16bit-FFP , 24bit-FFP
Disc Counts 2 / 3
Media Size
Date Circulated
Date Added
02/14/2010
02/14/2010
Source Summary (FOB) Schoeps MK22 > KC5 > CMC6 > Sonosax SX-M2 > Apogee Mini-me > Edirol R-44 (24/96); SD-HC Card > USB > Soundforge 10 (tracking, normalize, resample/dither to 16bit/44.1khz) > FLAC (Level 8); Taped & Transferred by Andy Murray (NOTE: both 16 bit & 24 bit versions are available) 
Source Information - Download Text | Download Zip
-=-=-=-=-=-=-=-=-=-=-=-=-=-=-=-=-=-=-=-=-=-
-=-=-    16 bit / 44.1 kHz version    -=-=-
-=-=-=-=-=-=-=-=-=-=-=-=-=-=-=-=-=-=-=-=-=-

Trey Anastasio Band
2010-02-12
House Of Blues
Boston, MA

Recorded and transferred by Andy Murray

ORTF/FOB/DFC 30' from stage
Schoeps MK22>KC5>CMC6>Sonosax SX-M2>Apogee Mini-me(aes [email protected] bit/96khz)>COAX>Edirol R-44
SD-HC Card>USB>Soundforge 10(tracking,normalize,resample/dither to 16bit/44.1khz)>FLAC (sector alignment,Level 8)

Thanks to Mad Taper,Phreshie,Double D,Cliff,Jesse and our neighbors around us who helped us block all night.

3 Discs
2 Sets

Disc 1:
Set 1:

01 Intro
02 Shine
03 Cayman Review
04 Push On Til the Day
05 What's Done
06 Birdwatcher
07 Mozambique
08 Night Speaks To A Woman

Disc 2:
Set 1 cont...

01 Alaska
02 Let Me Lie
03 Plasma
04 Tuesday

Set 2:

05 Intro
06 Drifting
07 All That Almost Was
08 Sand

Disc 3:
Set 2 cont...

01 Goodbye Head >
02 Gotta Jibboo
03 Small Axe
04 Valentine
05 Money Love and Change
06 Show Of Life
07 Dragonfly

Encore:

08 Sultans of Swing
09 First Tube

length expanded size cdr WAVE problems filename
1:24.46 14925836 --- -- ----- tab2010-02-12_mk22_1644_d1t01.wav
6:09.36 65176316 --- -- ----- tab2010-02-12_mk22_1644_d1t02.wav
6:23.68 67721180 --- -- ----- tab2010-02-12_mk22_1644_d1t03.wav
9:04.68 96121580 --- -- ----- tab2010-02-12_mk22_1644_d1t04.wav
7:17.42 77185628 --- -- ----- tab2010-02-12_mk22_1644_d1t05.wav
4:48.65 50956124 --- -- ----- tab2010-02-12_mk22_1644_d1t06.wav
9:59.15 105698924 --- -- ----- tab2010-02-12_mk22_1644_d1t07.wav
11:27.11 121212716 --- -- ----- tab2010-02-12_mk22_1644_d1t08.wav
8:51.59 93807212 --- -- ----- tab2010-02-12_mk22_1644_d2t01.wav
5:30.06 58226156 --- -- ----- tab2010-02-12_mk22_1644_d2t02.wav
9:12.63 97521020 --- -- ----- tab2010-02-12_mk22_1644_d2t03.wav
6:05.06 64400156 --- -- ----- tab2010-02-12_mk22_1644_d2t04.wav
0:54.52 9647948 --- -- ----- tab2010-02-12_mk22_1644_d2t05.wav
7:26.35 78756764 --- -- ----- tab2010-02-12_mk22_1644_d2t06.wav
6:30.56 68927756 --- -- ----- tab2010-02-12_mk22_1644_d2t07.wav
10:28.71 110946236 --- -- ----- tab2010-02-12_mk22_1644_d2t08.wav
7:14.40 76651724 --- -- ----- tab2010-02-12_mk22_1644_d3t01.wav
13:32.55 143366204 --- -- ----- tab2010-02-12_mk22_1644_d3t02.wav
3:40.60 38949164 --- -- ----- tab2010-02-12_mk22_1644_d3t03.wav
7:56.66 84121676 --- -- ----- tab2010-02-12_mk22_1644_d3t04.wav
14:56.26 158115596 --- -- ----- tab2010-02-12_mk22_1644_d3t05.wav
5:58.32 63226508 --- -- ----- tab2010-02-12_mk22_1644_d3t06.wav
7:45.41 82122476 --- -- ----- tab2010-02-12_mk22_1644_d3t07.wav
6:31.44 69075932 --- -- ----- tab2010-02-12_mk22_1644_d3t08.wav
8:45.03 92617100 --- -- ----- tab2010-02-12_mk22_1644_d3t09.wav
187:58.16 1989477932 B (totals for 25 files, 1.0000 overall compression ratio)





-=-=-=-=-=-=-=-=-=-=-=-=-=-=-=-=-=-=-=-=-
-=-=-    24 bit / 96 kHz version    -=-=-
-=-=-=-=-=-=-=-=-=-=-=-=-=-=-=-=-=-=-=-=-

Trey Anastasio Band
2010-02-12
House Of Blues
Boston, MA

Recorded and transferred by Andy Murray

ORTF/FOB/DFC 30' from stage
Schoeps MK22>KC5>CMC6>Sonosax SX-M2>Apogee Mini-me(aes [email protected] bit/96khz)>COAX>Edirol R-44
SD-HC Card>USB>Soundforge 10(tracking,normalize)>FLAC Level 8

Thanks to Madtaper,Phreshie,Double D,Cliff,Jesse and our neighbors around us who helped us block all night.

2 Discs
2 Sets

Disc 1:
Set 1:

01 Intro
02 Shine
03 Cayman Review
04 Push On Til the Day
05 What's Done
06 Birdwatcher
07 Mozambique
08 Night Speaks To A Woman
09 Alaska
10 Let Me Lie
11 Plasma
12 Tuesday

Disc 2:
Set 2:

01 Intro
02 Drifting
03 All That Almost Was
04 Sand
05 Goodbye Head >
06 Gotta Jibboo
07 Small Axe
08 Valentine
09 Money Love and Change
10 Show Of Life
11 Dragonfly

Encore:

12 Sultans of Swing
13 First Tube
Show Checksums
16bit-FFP
tab2010-02-12_mk22_1644_d1t01.flac:f1c74fcb7304228367f0dff528e1243f
tab2010-02-12_mk22_1644_d1t02.flac:b8982121cc2d7bb803290f66ac38766f
tab2010-02-12_mk22_1644_d1t03.flac:5f6e45e57b4bd1cf4a43dd1c1da9fe1c
tab2010-02-12_mk22_1644_d1t04.flac:ccc25a7d428ecf71641dd5405f4f0db7
tab2010-02-12_mk22_1644_d1t05.flac:b6d9a2d62722a07fd8d50f2efee5c391
tab2010-02-12_mk22_1644_d1t06.flac:2ebea3025a6166b887301ae3788a6cfc
tab2010-02-12_mk22_1644_d1t07.flac:bd600faf995a668bcb8f60d73b71be8b
tab2010-02-12_mk22_1644_d1t08.flac:ca26fb116bdacc36ee796e2639377859
tab2010-02-12_mk22_1644_d2t01.flac:7b17fe3a15c78f195629d633f4f80603
tab2010-02-12_mk22_1644_d2t02.flac:bdaaa72a7a65f9843248962d1045b573
tab2010-02-12_mk22_1644_d2t03.flac:a71aa4fd2ec58f1835ac68b5cc37fe85
tab2010-02-12_mk22_1644_d2t04.flac:23abfe55668cc9ee916dac48b5086e81
tab2010-02-12_mk22_1644_d2t05.flac:57a14092b5040ad0d5b78474725c1c94
tab2010-02-12_mk22_1644_d2t06.flac:d8b38485771bfc793082ea71166e068c
tab2010-02-12_mk22_1644_d2t07.flac:464107d3f824d436181e4541c742564f
tab2010-02-12_mk22_1644_d2t08.flac:69802abc712bbf211cae9bf3c8bf8803
tab2010-02-12_mk22_1644_d3t01.flac:f0c84295d095ddee059772d06fa48198
tab2010-02-12_mk22_1644_d3t02.flac:365fc0bfbebe588c16d21ea4367ab6c1
tab2010-02-12_mk22_1644_d3t03.flac:c9ea72ab17309ad9830bf38e4bd6b5b8
tab2010-02-12_mk22_1644_d3t04.flac:10f34121880b690596f60a9381eded57
tab2010-02-12_mk22_1644_d3t05.flac:5dd06d68e2641366d138cfc864ef4baf
tab2010-02-12_mk22_1644_d3t06.flac:673710270fef02e08ee2246d0002ed3d
tab2010-02-12_mk22_1644_d3t07.flac:1b2004ab8f03e1adf1f9964a9117ff1c
tab2010-02-12_mk22_1644_d3t08.flac:9937cb03f80b8c87161fa0bbad97c71c
tab2010-02-12_mk22_1644_d3t09.flac:2e7f6610441a796131f22f2e45be4c2c
24bit-FFP
tab2010-02-12_mk22_2496_d1t01.flac:f6d680c58e638273786560a1816423c2
tab2010-02-12_mk22_2496_d1t02.flac:f930e2e72c947a6f1b1b7bb1f8e86d81
tab2010-02-12_mk22_2496_d1t03.flac:f7471548e11a946d4b76777413644ee3
tab2010-02-12_mk22_2496_d1t04.flac:8cffe5f63e972bebcb53e6ca74e5fbad
tab2010-02-12_mk22_2496_d1t05.flac:5141a270ace84389374a29ed25a53785
tab2010-02-12_mk22_2496_d1t06.flac:b796bc0ea23249f445fb22a44c73235b
tab2010-02-12_mk22_2496_d1t07.flac:8ee3c0a4deb6b3a2df1df96ca091edfd
tab2010-02-12_mk22_2496_d1t08.flac:3552400527c67d04f92dffc8db9af3d9
tab2010-02-12_mk22_2496_d1t09.flac:c2717cceddc3c3cef1797c8078eace4d
tab2010-02-12_mk22_2496_d1t10.flac:37c697bf032e95b87ede301dbdc4df15
tab2010-02-12_mk22_2496_d1t11.flac:5152eda872696ed93e958711041d2ec5
tab2010-02-12_mk22_2496_d1t12.flac:ce70d7e1e8bd36801b843d5e57d08128
tab2010-02-12_mk22_2496_d2t01.flac:dab9d5f5680c16160e44419b48b28187
tab2010-02-12_mk22_2496_d2t02.flac:81000353992cbaabd62dfdd556d3c981
tab2010-02-12_mk22_2496_d2t03.flac:26f1fa55863563d1b71f39d3f7206ec2
tab2010-02-12_mk22_2496_d2t04.flac:042a79e3917a9c6ddb51263ceee4b768
tab2010-02-12_mk22_2496_d2t05.flac:226c25149f8bc8a30c9398c17a23550e
tab2010-02-12_mk22_2496_d2t06.flac:1b9911e2ab32738bb20e623867b94da8
tab2010-02-12_mk22_2496_d2t07.flac:1ae74eb8467cc509f112f12510019144
tab2010-02-12_mk22_2496_d2t08.flac:0b7b2fad5f0bf37c2990149f24a4d7b1
tab2010-02-12_mk22_2496_d2t09.flac:472c9542172a53301ea0a2ccd44bebf2
tab2010-02-12_mk22_2496_d2t10.flac:5e83120d1b85753fa3e7280c83147d9e
tab2010-02-12_mk22_2496_d2t11.flac:d9db004ba4a1252d28f0b8594975967d
tab2010-02-12_mk22_2496_d2t12.flac:676d95adbd8ce8a9ab6eed21e367f62f
tab2010-02-12_mk22_2496_d2t13.flac:155ab551f9d06df6a4b6a8ac4c3edf81

Comments
Add Comment
Other Sources (comments)
MBHO 603a/KA200N > Fostex... (0) AKG c480b/ck63 > oade bcm... (0) (FOB) Schoeps MK22 > KC5 >... (0)
Date User Comment