Browse Collections Artists Sources   Search Dates

Add Show    List Management    Help


Trey Anastasio 02/13/10
Oakdale Theater, Wallingford, CT
Comments Add Comment    Source Collectors    Add to Collection    Add to Want List    History
Source # 106051 Other Sources
Entered by Jason Sobel
Checksums 16bit-FFP
Disc Counts 2 / 3
Media Size
Date Circulated
Date Added
02/14/2010
02/14/2010
Source Summary (FOB) Schoeps CMXY4V > Lunatec V3 > MT2 (@ 24/48); CF > Sound Studio (fades, normalize, resample, dither) > xACT (align on sectors boundaries, encode, tag, fingerprint); Taped & Transferred by Jesse Hurlburt 
Source Information - Download Text | Download Zip
Trey Anastasio
February 13, 2010
Oakdale Theater
Wallingford, CT

Source: {12th row/center} Schoeps CMXY4V > V3 > MT2 @ 24/48
Transfer: CF > Sound Studio (fades, normalize, resample, dither) > xACT (align on sectors boundaries, encode, tag, fingerprint)
Recorded by Jesse Hurlburt

Disc 1/Set 1:
01 Alive Again
02 Shine
03 All That Almost Was
04 Mozambique
05 Push On Til The Day
06 Words to Wanda
07 Sand
08 Tuesday
09 Alaska
10 Liquid Time

Disc 2
11 Show of Life
Set 2:
12 Cayman Review
13 Gotta Jibboo
14 What’s Done
15 The Birdwatcher
16 Love Is Freedom >
17 Simple Twist Up Dave
18 Flock of Words
19 Drifting

Disc 3
20 First Tube
21 -encore break-
22 At The Gazebo
23 Valentine
24 Dragonfly

There is some distortion in the first set, beginning towards the end of Shine > All That Almost Was. It sounds like the PA was being overdriven, but it improves as the set progresses.


length expanded size cdr WAVE problems fmt ratio filename
9:53.45 104711084 B --- -- ---xx trey2010-02-13.cmxy4v.d1t01.flac
6:11.20 65491484 B --- -- ---xx trey2010-02-13.cmxy4v.d1t02.flac
7:19.21 77489036 B --- -- ---xx trey2010-02-13.cmxy4v.d1t03.flac
9:06.17 96354428 B --- -- ---xx trey2010-02-13.cmxy4v.d1t04.flac
11:04.38 117219020 B --- -- ---xx trey2010-02-13.cmxy4v.d1t05.flac
5:31.34 58468412 B --- -- ---xx trey2010-02-13.cmxy4v.d1t06.flac
10:05.61 106865516 B --- -- ---xx trey2010-02-13.cmxy4v.d1t07.flac
5:18.32 56170508 B --- -- ---xx trey2010-02-13.cmxy4v.d1t08.flac
9:02.00 95608844 B --- -- ---xx trey2010-02-13.cmxy4v.d1t09.flac
10:57.55 116024204 B --- -- ---xx trey2010-02-13.cmxy4v.d2t10.flac
6:15.72 66319388 B --- -- ---xx trey2010-02-13.cmxy4v.d2t11.flac
5:46.70 61199084 B --- -- ---xx trey2010-02-13.cmxy4v.d2t12.flac
11:54.19 125994332 B --- -- ---xx trey2010-02-13.cmxy4v.d2t13.flac
6:34.71 69668636 B --- -- ---xx trey2010-02-13.cmxy4v.d2t14.flac
4:14.07 44822108 B --- -- ---xx trey2010-02-13.cmxy4v.d2t15.flac
8:48.52 93261548 B --- -- ---xx trey2010-02-13.cmxy4v.d2t16.flac
9:45.15 103229324 B --- -- ---xx trey2010-02-13.cmxy4v.d2t17.flac
6:29.32 68694908 B --- -- ---xx trey2010-02-13.cmxy4v.d2t18.flac
8:03.54 85328252 B --- -- ---xx trey2010-02-13.cmxy4v.d2t19.flac
8:50.48 93604940 B --- -- ---xx trey2010-02-13.cmxy4v.d3t20.flac
2:26.57 25888508 B --- -- ---xx trey2010-02-13.cmxy4v.d3t21.flac
3:47.20 40089884 B --- -- ---xx trey2010-02-13.cmxy4v.d3t22.flac
7:25.00 78498044 B --- -- ---xx trey2010-02-13.cmxy4v.d3t23.flac
7:38.07 80807708 B --- -- ---xx trey2010-02-13.cmxy4v.d3t24.flac
182:31.22 1931809200 B 0.5549 (24 files)
Show Checksums
16bit-FFP
trey2010-02-13.cmxy4v.d1t01.flac:11eef830fb8a6403766acd457bc308b9
trey2010-02-13.cmxy4v.d1t02.flac:ccc911d049e4ec462e212a70b08ff43c
trey2010-02-13.cmxy4v.d1t03.flac:5ec76e30c4184551990fefd17ceab25c
trey2010-02-13.cmxy4v.d1t04.flac:6e16c627a5848b5b0ec58232d27b8551
trey2010-02-13.cmxy4v.d1t05.flac:cfb71be6ea91a75435465d2fafbf3e92
trey2010-02-13.cmxy4v.d1t06.flac:1daa962d0e023ff3e7a6b300ceaa6dfc
trey2010-02-13.cmxy4v.d1t07.flac:ab0452a642f2be36df1047380a7f2946
trey2010-02-13.cmxy4v.d1t08.flac:3ca6cbd7437a112293c26f2aca6a324e
trey2010-02-13.cmxy4v.d1t09.flac:1178adf45c8511a36757c588931ab549
trey2010-02-13.cmxy4v.d2t10.flac:97898c1e02dc4c469a452c7e695d1dc6
trey2010-02-13.cmxy4v.d2t11.flac:219f63626f119d8cf6d4a6cdc0930358
trey2010-02-13.cmxy4v.d2t12.flac:a47d583aa82125855a37c229a546f793
trey2010-02-13.cmxy4v.d2t13.flac:0fb6dacb3b5583aeabc826553de7e9d4
trey2010-02-13.cmxy4v.d2t14.flac:fb9cb83b58fd8fcabb115ee8049a126c
trey2010-02-13.cmxy4v.d2t15.flac:84399d4162b19067553144160635e4f5
trey2010-02-13.cmxy4v.d2t16.flac:3db4423ba4a88e2d0995d56fbe32ef4a
trey2010-02-13.cmxy4v.d2t17.flac:eb83dfba76f8b152b49a75992f6a5bbd
trey2010-02-13.cmxy4v.d2t18.flac:c1d987a843516ac31eba2d3f8f49dce1
trey2010-02-13.cmxy4v.d2t19.flac:ce1c2c5333cc73fc2fbae46e4052e298
trey2010-02-13.cmxy4v.d3t20.flac:d137ae796f729d5a46b4351e51d6806f
trey2010-02-13.cmxy4v.d3t21.flac:ee005125bdfc1f9c2d68a997626fb72b
trey2010-02-13.cmxy4v.d3t22.flac:0fb17b133efe390298b23e74db752583
trey2010-02-13.cmxy4v.d3t23.flac:ef16b6c555c3df37b132e028a08da3df
trey2010-02-13.cmxy4v.d3t24.flac:5b7aedc465e8a3468b4ec0d704b6bfde

Comments
Add Comment
Other Sources (comments)
Microtech Gefell M200's >... (0) (FOB) Schoeps MK22 > KC5 >... (0)
Date User Comment