Browse Collections Artists Sources   Search Dates

Add Show    List Management    Help


Trey Anastasio 02/13/10
Oakdale Theater, Wallingford, CT
Comments Add Comment    Source Collectors    Add to Collection    Add to Want List    History
Source # 106090 Other Sources
Entered by Jason Sobel
Checksums 16bit-FFP , 24bit-FFP
Disc Counts 2 / 3
Media Size
Date Circulated
Date Added
02/15/2010
02/15/2010
Source Summary (FOB) Schoeps MK22 > KC5 > CMC6 > Sonosax SX-M2 > Apogee Mini-me > Edirol R-44 (24/96); SD-HC Card > USB > Soundforge 10 (tracking, normalize, resample/dither to 16bit/44.1khz) > FLAC (Level 8); Taped & Transferred by Andy Murray (NOTE: both 16 bit & 24 bit versions are available) 
Source Information - Download Text | Download Zip
-=-=-=-=-=-=-=-=-=-=-=-=-=-=-=-=-=-=-=-=-=-
-=-=-    16 bit / 44.1 kHz version    -=-=-
-=-=-=-=-=-=-=-=-=-=-=-=-=-=-=-=-=-=-=-=-=-

Trey Anastasio Band
2010-02-13
Oakdale Theatre
Wallingford, CT

Recorded and transferred by Andy Murray

ORTF/FOB/12th row DFC
Schoeps MK22>KC5>CMC6>Sonosax SX-M2>Apogee Mini-me(aes [email protected] bit/96khz)>COAX>Edirol R-44
SD-HC Card>USB>Soundforge 10(tracking,normalize,resample/dither to 16bit/44.1khz)>FLAC (sector alignment,Level 8)

3 Discs
2 Sets

There is some distortion in the first set, beginning towards the end of Shine > All That Almost Was.
It sounds like the PA was being overdriven, but it improves as the set progresses.

Disc 1:
Set 1:

01 Intro
02 Alive Again
03 Shine
04 All That Almost Was
05 Mozambique
06 Push On Til The Day
07 Words to Wanda
08 Sand
09 Tuesday
10 Alaska

Disc 2:
Set 1 cont...

01 Liquid Time
02 Show of Life

Set 2:
03 Intro
04 Cayman Review
05 Gotta Jibboo
06 What’s Done
07 The Birdwatcher
08 Love Is Freedom >
09 Simple Twist Up Dave
10 Flock of Words

Disc 3:
Set 2 cont...

01 Drifting
02 First Tube
Encore:
03 At The Gazebo
04 Valentine
05 Dragonfly

length expanded size cdr WAVE problems filename
1:26.28 15236300 --- -- ----- tab2010-02-13_mk22_1644_d1t01.wav
9:16.71 98245436 --- -- ----- tab2010-02-13_mk22_1644_d1t02.wav
6:11.44 65547932 --- -- ----- tab2010-02-13_mk22_1644_d1t03.wav
7:18.06 77277356 --- -- ----- tab2010-02-13_mk22_1644_d1t04.wav
9:06.08 96333260 --- -- ----- tab2010-02-13_mk22_1644_d1t05.wav
11:05.19 117350732 --- -- ----- tab2010-02-13_mk22_1644_d1t06.wav
5:31.04 58397852 --- -- ----- tab2010-02-13_mk22_1644_d1t07.wav
10:05.09 106743212 --- -- ----- tab2010-02-13_mk22_1644_d1t08.wav
5:18.49 56210492 --- -- ----- tab2010-02-13_mk22_1644_d1t09.wav
9:14.63 97873820 --- -- ----- tab2010-02-13_mk22_1644_d1t10.wav
10:44.51 113721596 --- -- ----- tab2010-02-13_mk22_1644_d2t01.wav
6:52.24 72733292 --- -- ----- tab2010-02-13_mk22_1644_d2t02.wav
1:02.64 11087372 --- -- ----- tab2010-02-13_mk22_1644_d2t03.wav
5:32.11 58590716 --- -- ----- tab2010-02-13_mk22_1644_d2t04.wav
11:55.42 126224828 --- -- ----- tab2010-02-13_mk22_1644_d2t05.wav
6:37.07 70047308 --- -- ----- tab2010-02-13_mk22_1644_d2t06.wav
4:05.45 43323884 --- -- ----- tab2010-02-13_mk22_1644_d2t07.wav
8:55.38 94463420 --- -- ----- tab2010-02-13_mk22_1644_d2t08.wav
9:44.51 103137596 --- -- ----- tab2010-02-13_mk22_1644_d2t09.wav
6:30.01 68798396 --- -- ----- tab2010-02-13_mk22_1644_d2t10.wav
8:03.31 85274156 --- -- ----- tab2010-02-13_mk22_1644_d3t01.wav
11:18.02 119603948 --- -- ----- tab2010-02-13_mk22_1644_d3t02.wav
3:46.14 39899372 --- -- ----- tab2010-02-13_mk22_1644_d3t03.wav
7:21.65 77945324 --- -- ----- tab2010-02-13_mk22_1644_d3t04.wav
8:03.29 85269452 --- -- ----- tab2010-02-13_mk22_1644_d3t05.wav
185:07.26 1959337052 B (totals for 25 files, 1.0000 overall compression ratio)






-=-=-=-=-=-=-=-=-=-=-=-=-=-=-=-=-=-=-=-=-
-=-=-    24 bit / 96 kHz version    -=-=-
-=-=-=-=-=-=-=-=-=-=-=-=-=-=-=-=-=-=-=-=-

Trey Anastasio Band
2010-02-13
Oakdale Theatre
Wallingford, CT

Recorded and transferred by Andy Murray

ORTF/FOB/12th row DFC
Schoeps MK22>KC5>CMC6>Sonosax SX-M2>Apogee Mini-me(aes [email protected] bit/96khz)>COAX>Edirol R-44
SD-HC Card>USB>Soundforge 10(tracking,normalize)>FLAC Level 8

2 Discs
2 Sets

There is some distortion in the first set, beginning towards the end of Shine > All That Almost Was.
It sounds like the PA was being overdriven, but it improves as the set progresses.

Disc 1:
Set 1:

01 Intro
02 Alive Again
03 Shine
04 All That Almost Was
05 Mozambique
06 Push On Til The Day
07 Words to Wanda
08 Sand
09 Tuesday
10 Alaska
11 Liquid Time
12 Show of Life

Disc 2:
Set 2:

01 Intro
02 Cayman Review
03 Gotta Jibboo
04 What’s Done
05 The Birdwatcher
06 Love Is Freedom >
07 Simple Twist Up Dave
08 Flock of Words
09 Drifting
10 First Tube
Encore:
11 At The Gazebo
12 Valentine
13 Dragonfly
Show Checksums
16bit-FFP
tab2010-02-13_mk22_1644_d1t01.flac:cf1d240ce58e46d824a410f06e92f355
tab2010-02-13_mk22_1644_d1t02.flac:874f6ab1a6268ad961bfe0c9051c640c
tab2010-02-13_mk22_1644_d1t03.flac:ad321f64b5272ad49fefd6fbed47453f
tab2010-02-13_mk22_1644_d1t04.flac:caceddf817f9ced8be0534bfd022b57a
tab2010-02-13_mk22_1644_d1t05.flac:3ab9bae68de09e3a6f5f7643a36781c8
tab2010-02-13_mk22_1644_d1t06.flac:0911ecda6abd2ce1d191184022ab14a8
tab2010-02-13_mk22_1644_d1t07.flac:707005b22fc04d1f46988a8a5903d5e9
tab2010-02-13_mk22_1644_d1t08.flac:c67b776805a4c1b85df7895abd48c86d
tab2010-02-13_mk22_1644_d1t09.flac:ef78f51e853409511f2028d048a7ae4e
tab2010-02-13_mk22_1644_d1t10.flac:aa33f2db270a09da4c3e5701c7054a07
tab2010-02-13_mk22_1644_d2t01.flac:a78234a769e12f5025a82c491ce4cc5a
tab2010-02-13_mk22_1644_d2t02.flac:cc17a0889e83c024ad1295c91163997f
tab2010-02-13_mk22_1644_d2t03.flac:a10ee9194af773df9ea3e500c262c575
tab2010-02-13_mk22_1644_d2t04.flac:5b5c7dc09a993fd417a84fae2c20f550
tab2010-02-13_mk22_1644_d2t05.flac:e58d21a3bccc9bd02e799be93e1e8205
tab2010-02-13_mk22_1644_d2t06.flac:95a8c2c214437b8218a2de8545fdfa0d
tab2010-02-13_mk22_1644_d2t07.flac:fe69d609586c2c3d06dbf3db7388e9f2
tab2010-02-13_mk22_1644_d2t08.flac:c7a9710b1e6c4b4d67419bf985c3ac95
tab2010-02-13_mk22_1644_d2t09.flac:0819326f9ee605202dfcd191e255f88d
tab2010-02-13_mk22_1644_d2t10.flac:ff23239dd46316d9375a16d7c21dbd05
tab2010-02-13_mk22_1644_d3t01.flac:5ab89c52c29d4e9d1d68bd5f194ff48b
tab2010-02-13_mk22_1644_d3t02.flac:7ffafb7b77f146749650fa41b2744296
tab2010-02-13_mk22_1644_d3t03.flac:60b8d6259411d9ebd5bea0e0ff64c498
tab2010-02-13_mk22_1644_d3t04.flac:b62cacb7aa240e39a33e85a6da47cbe9
tab2010-02-13_mk22_1644_d3t05.flac:fdaf0a8d63b093d14bce472fdf8146b0
24bit-FFP
tab2010-02-13_mk22_2496_d1t01.flac:f1e34c87dfb54d14a420fdb0b8ece57c
tab2010-02-13_mk22_2496_d1t02.flac:f79c2915401828371720ba7dc02e8dee
tab2010-02-13_mk22_2496_d1t03.flac:aa259a8c4659ff0dc1ad5f4c6033cc90
tab2010-02-13_mk22_2496_d1t04.flac:6182901f72729c13861728c843011e17
tab2010-02-13_mk22_2496_d1t05.flac:dd49028ec34b10e94ceba398245730d1
tab2010-02-13_mk22_2496_d1t06.flac:af59c6b1f5de5b135cc441af0ad1ccf3
tab2010-02-13_mk22_2496_d1t07.flac:d300f7793067815626795256537ef7ee
tab2010-02-13_mk22_2496_d1t08.flac:96dd3e56e461e44514bbed8b1eb58e9f
tab2010-02-13_mk22_2496_d1t09.flac:304632a40cd4c5fb4f647a508c2fba4b
tab2010-02-13_mk22_2496_d1t10.flac:cd0d73b96041e3ac2c5376d1afc3874b
tab2010-02-13_mk22_2496_d1t11.flac:2f39f2036294f40a5edd4485b04ba77a
tab2010-02-13_mk22_2496_d1t12.flac:3048beada2a9f2686ec6433ed8ad833b
tab2010-02-13_mk22_2496_d2t01.flac:a0558c7995e4678a9dbb3dd77203e2f1
tab2010-02-13_mk22_2496_d2t02.flac:072143a353e9aa6d0111957c6ea6db13
tab2010-02-13_mk22_2496_d2t03.flac:e2206de00f7ab7b6906c9c0e07f4b20f
tab2010-02-13_mk22_2496_d2t04.flac:0ef142becb6e9c70075366c25c351f43
tab2010-02-13_mk22_2496_d2t05.flac:4c3b8a9bd5b311cc41786dfcef707f8d
tab2010-02-13_mk22_2496_d2t06.flac:e4f2025d3bd5a862be44d2de78bf7106
tab2010-02-13_mk22_2496_d2t07.flac:8ad60274b4de665b76c393dcedfac89a
tab2010-02-13_mk22_2496_d2t08.flac:2b3b9b5bb1caef01cef6f3703062b480
tab2010-02-13_mk22_2496_d2t09.flac:0e29168211bbc03aa78ad60e475ccb74
tab2010-02-13_mk22_2496_d2t10.flac:6ef2134964078b4f65a9eac02da6e3b7
tab2010-02-13_mk22_2496_d2t11.flac:0c92593090d52226f0181f894d1b435b
tab2010-02-13_mk22_2496_d2t12.flac:85d96d07ad4707ef577f93f85339faf8
tab2010-02-13_mk22_2496_d2t13.flac:7f5f47f227f87e609a0725a0d5e8eb13

Comments
Add Comment
Other Sources (comments)
(FOB) Schoeps CMXY4V >... (0) Microtech Gefell M200's >... (0)
Date User Comment