Browse Collections Artists Sources   Search Dates

Add Show    List Management    Help


Trey Anastasio 02/12/10
House of Blues, Boston, MA
Comments Add Comment    Source Collectors    Add to Collection    Add to Want List    History
Source # 106113 Other Sources
Entered by Jason Sobel
Checksums 16bit-FFP , 24bit-FFP
Disc Counts 2 / 3
Media Size
Date Circulated
Date Added
02/16/2010
02/17/2010
Source Summary (FOB) Schoeps MK22 > KC5 > CMC6 > Sonosax SX-M2 > Fostex FR2LE (Oade HD Mod) @24 bit/48khz; CF Card > USB > Soundforge 10 (tracking, resample/dither to 16bit/44.1khz) > FLAC (sector alignment,Level 8); Taped by Dave Flaschner; Transferred by Andy Murray (NOTE: both 16 bit & 24 bit versions are available) 
Source Information - Download Text | Download Zip
-=-=-=-=-=-=-=-=-=-=-=-=-=-=-=-=-=-=-=-=-=-
-=-=-    16 bit / 44.1 kHz version    -=-=-
-=-=-=-=-=-=-=-=-=-=-=-=-=-=-=-=-=-=-=-=-=-

Trey Anastasio Band
2010-02-12
House Of Blues
Boston, MA

Recorded by Dave Flaschner
Transferred by Andy Murray

ORTF/FOB/DFC 30' from stage
Schoeps MK22>KC5>CMC6>Sonosax SX-M2>Fostex FR2LE (Oade HD [email protected] bit/48khz)
CF Card>USB>Soundforge 10(tracking,resample/dither to 16bit/44.1khz)>FLAC (sector alignment,Level 8)

Thanks to Mad Taper,Phreshie,Double D,Cliff,Jesse and our neighbors around us who helped us block all night.

3 Discs
2 Sets

Disc 1:
Set 1:

01 Intro
02 Shine
03 Cayman Review
04 Push On Til the Day
05 What's Done
06 Birdwatcher
07 Mozambique
08 Night Speaks To A Woman

Disc 2:
Set 1 cont...

01 Alaska
02 Let Me Lie
03 Plasma
04 Tuesday

Set 2:

05 Intro
06 Drifting
07 All That Almost Was
08 Sand

Disc 3:
Set 2 cont...

01 Goodbye Head >
02 Gotta Jibboo
03 Small Axe
04 Valentine
05 Money Love and Change
06 Show Of Life
07 Dragonfly

Encore:

08 Sultans of Swing
09 First Tube


    length     expanded size   cdr  WAVE problems filename
     1:09.69       12333932    ---   --   -----   tab2010-02-12_mk22sax_1644_d1t01.wav
     6:08.74       65089292    ---   --   -----   tab2010-02-12_mk22sax_1644_d1t02.wav
     6:25.72       68083388    ---   --   -----   tab2010-02-12_mk22sax_1644_d1t03.wav
     9:05.04       96147452    ---   --   -----   tab2010-02-12_mk22sax_1644_d1t04.wav
     7:16.67       77068028    ---   --   -----   tab2010-02-12_mk22sax_1644_d1t05.wav
     4:48.26       50864396    ---   --   -----   tab2010-02-12_mk22sax_1644_d1t06.wav
     9:59.48      105776540    ---   --   -----   tab2010-02-12_mk22sax_1644_d1t07.wav
    11:26.33      121088060    ---   --   -----   tab2010-02-12_mk22sax_1644_d1t08.wav
     8:52.66       94000076    ---   --   -----   tab2010-02-12_mk22sax_1644_d2t01.wav
     5:29.00       58035644    ---   --   -----   tab2010-02-12_mk22sax_1644_d2t02.wav
     9:13.21       97598636    ---   --   -----   tab2010-02-12_mk22sax_1644_d2t03.wav
     5:51.62       62062268    ---   --   -----   tab2010-02-12_mk22sax_1644_d2t04.wav
     0:52.29        9241052    ---   --   -----   tab2010-02-12_mk22sax_1644_d2t05.wav
     7:27.42       78949628    ---   --   -----   tab2010-02-12_mk22sax_1644_d2t06.wav
     6:30.45       68901884    ---   --   -----   tab2010-02-12_mk22sax_1644_d2t07.wav
    10:30.23      111186140    ---   --   -----   tab2010-02-12_mk22sax_1644_d2t08.wav
     7:13.08       76400060    ---   --   -----   tab2010-02-12_mk22sax_1644_d3t01.wav
    13:32.68      143396780    ---   --   -----   tab2010-02-12_mk22sax_1644_d3t02.wav
     3:43.19       39381932    ---   --   -----   tab2010-02-12_mk22sax_1644_d3t03.wav
     7:55.46       83898236    ---   --   -----   tab2010-02-12_mk22sax_1644_d3t04.wav
    14:55.10      157901564    ---   --   -----   tab2010-02-12_mk22sax_1644_d3t05.wav
     5:57.68       63134780    ---   --   -----   tab2010-02-12_mk22sax_1644_d3t06.wav
     7:45.08       82044860    ---   --   -----   tab2010-02-12_mk22sax_1644_d3t07.wav
     6:32.20       69195884    ---   --   -----   tab2010-02-12_mk22sax_1644_d3t08.wav
     8:42.58       92217260    ---   --   -----   tab2010-02-12_mk22sax_1644_d3t09.wav
   187:27.11     1983997772 B                     (totals for 25 files, 1.0000 overall compression ratio)






-=-=-=-=-=-=-=-=-=-=-=-=-=-=-=-=-=-=-=-=-=-
-=-=-    24 bit / 48 kHz version    -=-=-
-=-=-=-=-=-=-=-=-=-=-=-=-=-=-=-=-=-=-=-=-=-

Trey Anastasio Band
2010-02-12
House Of Blues
Boston, MA

Recorded by Dave Flaschner
Transferred by Andy Murray

ORTF/FOB/DFC 30' from stage
Schoeps MK22>KC5>CMC6>Sonosax SX-M2>Fostex FR2LE (Oade HD [email protected] bit/48khz)
CF Card>USB>Soundforge 10(tracking)>FLAC Level 8

Thanks to Mad Taper,Phreshie,Double D,Cliff,Jesse and our neighbors around us who helped us block all night.

2 Discs
2 Sets

Disc 1:
Set 1:

01 Intro
02 Shine
03 Cayman Review
04 Push On Til the Day
05 What's Done
06 Birdwatcher
07 Mozambique
08 Night Speaks To A Woman
09 Alaska
10 Let Me Lie
11 Plasma
12 Tuesday

Set 2:

01 Intro
02 Drifting
03 All That Almost Was
04 Sand
05 Goodbye Head >
06 Gotta Jibboo
07 Small Axe
08 Valentine
09 Money Love and Change
10 Show Of Life
11 Dragonfly
Encore:
12 Sultans of Swing
13 First Tube
Show Checksums
16bit-FFP
tab2010-02-12_mk22sax_1644_d1t01.flac:31e26a81e0175873d7a829c1ebc5391b
tab2010-02-12_mk22sax_1644_d1t02.flac:0fe9f629827d2c0cec9a3f30594150e8
tab2010-02-12_mk22sax_1644_d1t03.flac:f5d24d427fbfd835830ae39fbd15151d
tab2010-02-12_mk22sax_1644_d1t04.flac:bcea34219af5edb62ad25121aff8cb02
tab2010-02-12_mk22sax_1644_d1t05.flac:3ed5f9cecd905a626dc0ddefba3f815e
tab2010-02-12_mk22sax_1644_d1t06.flac:da5b200f2b8c1f3c25829253893e6708
tab2010-02-12_mk22sax_1644_d1t07.flac:7a49774597035393a6c78a3871a50763
tab2010-02-12_mk22sax_1644_d1t08.flac:a09d04360065ecd84def3be852287e85
tab2010-02-12_mk22sax_1644_d2t01.flac:71590b0b3bb8a7c83f54ce013cfd63e9
tab2010-02-12_mk22sax_1644_d2t02.flac:eabfda71db935c68410aaae67be511c6
tab2010-02-12_mk22sax_1644_d2t03.flac:d9945f067168add9eaf12ebba75d1f77
tab2010-02-12_mk22sax_1644_d2t04.flac:9be2c21d3bc4b34ff0d0275344bc0510
tab2010-02-12_mk22sax_1644_d2t05.flac:ddf58dec1971c3800f8277f5c02e9baf
tab2010-02-12_mk22sax_1644_d2t06.flac:9c3f6391a4a5f4addea4244524ff4625
tab2010-02-12_mk22sax_1644_d2t07.flac:5eaa4e821b03b427699f94090be5c0f9
tab2010-02-12_mk22sax_1644_d2t08.flac:a4a81fae140e7f8fb11345ff050cd23e
tab2010-02-12_mk22sax_1644_d3t01.flac:cce9b579e972812cf1863f7d2a318302
tab2010-02-12_mk22sax_1644_d3t02.flac:697b08140faea00ec975574ce4028880
tab2010-02-12_mk22sax_1644_d3t03.flac:24502a24410f52ab6efc6eb89f3dfc7b
tab2010-02-12_mk22sax_1644_d3t04.flac:f8bf99f2b668a26d589d7cf99e4b9f5f
tab2010-02-12_mk22sax_1644_d3t05.flac:7757651ccb56ba2d2ae76530a05312ca
tab2010-02-12_mk22sax_1644_d3t06.flac:ca0e066814c7bd140e99d329cc77ae2d
tab2010-02-12_mk22sax_1644_d3t07.flac:20e5be16971e2a28de8589aa1c759be3
tab2010-02-12_mk22sax_1644_d3t08.flac:38b1ca8ea08afff8fff4b7ef8c31278d
tab2010-02-12_mk22sax_1644_d3t09.flac:6fac194c61db97242d8daeda73d4c8c8
24bit-FFP
tab2010-02-12_mk22sax_2448_d1t01.flac:5a54ac9097dbcfdb4889f327249e438d
tab2010-02-12_mk22sax_2448_d1t02.flac:c65f4e690c4135522503ff5f82168ea7
tab2010-02-12_mk22sax_2448_d1t03.flac:c5ba9b19fda537fecba59adea5a5a6d0
tab2010-02-12_mk22sax_2448_d1t04.flac:275802a1280b42e47948a15accdacbac
tab2010-02-12_mk22sax_2448_d1t05.flac:5346410c05e27dd3c660dfc5c7aef4c7
tab2010-02-12_mk22sax_2448_d1t06.flac:61b6e32478fa7d70f15b351de1d1b228
tab2010-02-12_mk22sax_2448_d1t07.flac:79f8ce2a860876b969b0de768f482ca0
tab2010-02-12_mk22sax_2448_d1t08.flac:1c253909e07a1f7ece9bde383d91eec4
tab2010-02-12_mk22sax_2448_d1t09.flac:f2d5585a2cc3ca907c516f1dacdd925e
tab2010-02-12_mk22sax_2448_d1t10.flac:4bb8e07d79ef3fe99ee2c91827f94061
tab2010-02-12_mk22sax_2448_d1t11.flac:501a8f04eaab5cd4c23eb5f25d219bef
tab2010-02-12_mk22sax_2448_d1t12.flac:17eb9e4db16cc7bd94d68523dfe9573d
tab2010-02-12_mk22sax_2448_d2t01.flac:73c257d059a8303e702658849ec95b13
tab2010-02-12_mk22sax_2448_d2t02.flac:af0d5d74b06c65cdcbe238fb57c4cbe6
tab2010-02-12_mk22sax_2448_d2t03.flac:17af14c1c0a5bcb69edc492d37cdfd56
tab2010-02-12_mk22sax_2448_d2t04.flac:15f9223a4fa8587ddc458270f00aaddd
tab2010-02-12_mk22sax_2448_d2t05.flac:e905b6fe5b58e23cd3dd41731cf306a3
tab2010-02-12_mk22sax_2448_d2t06.flac:427257e4b6a490e3dedd14fafc254b61
tab2010-02-12_mk22sax_2448_d2t07.flac:ba1067ec271febd2752fb014dea27167
tab2010-02-12_mk22sax_2448_d2t08.flac:4228b8b8040e874cbbcb8e794838b6db
tab2010-02-12_mk22sax_2448_d2t09.flac:90a613041880c1c79ef8b5ee9d513c8a
tab2010-02-12_mk22sax_2448_d2t10.flac:38d499d001849be7ef3237d9c9d52097
tab2010-02-12_mk22sax_2448_d2t11.flac:4469b0dc4f396d2063ef999310ec1bb7
tab2010-02-12_mk22sax_2448_d2t12.flac:a8f3afcd0457744419ac2c7fe8509001
tab2010-02-12_mk22sax_2448_d2t13.flac:2393b1ff9160e06d93d1254e8385ef83

Comments
Add Comment
Other Sources (comments)
MBHO 603a/KA200N > Fostex... (0) AKG c480b/ck63 > oade bcm... (0) (FOB) Schoeps MK22 > KC5 >... (0)
Date User Comment