Browse Collections Artists Sources   Search Dates

Add Show    List Management    Help


Trey Anastasio 02/28/10
Tennessee Theatre, Knoxville, TN
Comments Add Comment    Source Collectors    Add to Collection    Add to Want List    History
Source # 106346 Other Sources
Entered by
Checksums 16bit-FFP
Disc Counts 2 / 3
Media Size Compressed: 2.1 GB (2258335536 bytes)
Date Circulated
Date Added
03/01/2010
03/01/2010
Source Summary (FOB) Schoeps CCM4V'S > Lunatec V2 > Benchmark AD2K > Sound Devices 722 (24/48); Sound Devices 722 > Sound Forge 9.0 > CD Wave > flac(16); Taped & Transferred by Z-Man 
Source Information - Download Text | Download Zip
Trey Anastasio And The TAB
Tennessee Theatre
Knoxville, Tennessee
2/28/2010

Source: Schoeps CCM4V'S(din)>Lunatec V2>Benchmark AD2K>
Sound Devices 722 (24/48)
FOB/DFC/KFC/ZFC/AARP Row P, Between Seats 108 And 109, 6' High
DSP: Sound Devices 722>Sound Forge 9.0>CD Wave>flac(16)
Recorded By: Z-Man
Seeded By: Z-Man

Disc I 1st Set

01 Tuning
02 Shine
03 Push On Til The Day
04 ?
05 ?
06 Night Speaks Of A Woman
07 What's Done
08 Cayman Review >
09 Gotta Jibboo >
10 ?
11 ?

Disc II 1st Set Con't

01 Sultans Of Swing
02 Band Introductions
03 *Kill Devil Falls
04 *Waste
05 Banter
06 *Strange Design
07 *Backwards Down The Number Line
08 *Chalkdust Torture
09 *Wilson
2nd Set:
10 Tuning/Banter
11 ?
12 Ether Sunday
13 At The Gazebo
14 ?

Disc III 2nd Set Con't

01 Alaska
02 ?
03 ?
04 ? >
05 ?
06 Black Dog
Encore:
07 Banter
08 ?
09 ?
10 Band Introductions
11 First Tube

* Trey Solo Acoustic

Flac Fingerprint

trey2010-02-28d01t01.flac:7d6b50db9274d89640130fd746bf305d
trey2010-02-28d01t02.flac:38ddabeaf3602329b6f22cb2b1a74c02
trey2010-02-28d01t03.flac:7a27034cd9f4e9bce3769beefd1badd2
trey2010-02-28d01t04.flac:85f0a03c28f74afb62b7b29f7e75a1d8
trey2010-02-28d01t05.flac:3266c5bf1140191319450ea3f6da12da
trey2010-02-28d01t06.flac:0379a5caeeb48a1ab0dcb0d46739d2f0
trey2010-02-28d01t07.flac:bcc088716c884265ab7608af6159500e
trey2010-02-28d01t08.flac:d2b20ecb3ca623c562b3c2275fbad6c1
trey2010-02-28d01t09.flac:92f914f532a3a4f13b4dbf78ec09d7ce
trey2010-02-28d01t10.flac:e4123a4fd292f49da500f4a24b678af7
trey2010-02-28d01t11.flac:7d455ac6e115e5a6b4e1c60fdde17414
trey2010-02-28d02t01.flac:37a94afc14016c7a3a9901186e5e02f7
trey2010-02-28d02t02.flac:7eb1992d7441413f75676e1f4170c9be
trey2010-02-28d02t03.flac:e21ec58e3d995bb397e5baaa4b887cef
trey2010-02-28d02t04.flac:edb592955eda151b59a15bb393a7127c
trey2010-02-28d02t05.flac:c2395bafafe7ba7caffd12d465577c6d
trey2010-02-28d02t06.flac:59ba12c06b4e4264c83927b1619acdae
trey2010-02-28d02t07.flac:25e2b544a7d52574cedca8cb5a239b11
trey2010-02-28d02t08.flac:2a8727fc45d9d8031932b588c90dfd04
trey2010-02-28d02t09.flac:3c978f67264f886ce7d68c5febcd717c
trey2010-02-28d02t10.flac:cba75fdeb79d512507158254168b1fb0
trey2010-02-28d02t11.flac:77cd4de03d46ceb0e157b9ebf5f8153f
trey2010-02-28d02t12.flac:940118e7514bebd80355a346b26c6de4
trey2010-02-28d02t13.flac:35a00b7a7532e7c1cba4166e229c687c
trey2010-02-28d02t14.flac:6e62e27d458e20f1a2b2d23359c5d70a
trey2010-02-28d03t01.flac:2b0357971b4dffde2f3c6127027daf2f
trey2010-02-28d03t02.flac:2a4e0a3bdf5843d4a73c575a9afe6f2b
trey2010-02-28d03t03.flac:a1a0e2d5312e4a73016d5a08429d0b86
trey2010-02-28d03t04.flac:4fadac24ec395ac6b0b42895eec5f19c
trey2010-02-28d03t05.flac:301621e8511d844c8a8756d29ea5c122
trey2010-02-28d03t06.flac:98816061500c6bb386277cbb78e0788d
trey2010-02-28d03t07.flac:81add7c45d1aa0f0cf01cbbd440260d1
trey2010-02-28d03t08.flac:a48acf6727ed55780e2d2f22f223ade5
trey2010-02-28d03t09.flac:9ee2ce57db82cc20b94744d8e26449ad
trey2010-02-28d03t10.flac:51176c3ba7ed31f5f66bf2ce56f38166
trey2010-02-28d03t11.flac:a77a7d03ee043445a86f0af6afe1454c

Shntool

    length     expanded size    cdr  WAVE problems  fmt   ratio  filename
     0:32.32        5720108 B   ---   --   ---xx   flac  0.3865  trey2010-02-28d01t01.flac
     9:20.18       98826380 B   ---   --   ---xx   flac  0.5516  trey2010-02-28d01t02.flac
     8:01.13       84879020 B   ---   --   ---xx   flac  0.5458  trey2010-02-28d01t03.flac
     3:57.15       41842124 B   ---   --   ---xx   flac  0.4561  trey2010-02-28d01t04.flac
     5:32.00       58564844 B   ---   --   ---xx   flac  0.5753  trey2010-02-28d01t05.flac
    12:08.33      128496860 B   ---   --   ---xx   flac  0.5136  trey2010-02-28d01t06.flac
     6:43.57       71223308 B   ---   --   ---xx   flac  0.5007  trey2010-02-28d01t07.flac
     4:54.37       51948668 B   ---   --   ---xx   flac  0.5403  trey2010-02-28d01t08.flac
    11:26.36      121095116 B   ---   --   ---xx   flac  0.5446  trey2010-02-28d01t09.flac
     5:37.64       59597372 B   ---   --   ---xx   flac  0.5760  trey2010-02-28d01t10.flac
    11:36.46      122882636 B   ---   --   ---xx   flac  0.5474  trey2010-02-28d01t11.flac
     5:43.41       60601676 B   ---   --   ---xx   flac  0.5458  trey2010-02-28d02t01.flac
     1:19.37       14022668 B   ---   --   ---xx   flac  0.4500  trey2010-02-28d02t02.flac
     4:13.40       44723324 B   ---   --   ---xx   flac  0.5042  trey2010-02-28d02t03.flac
     4:24.23       46623740 B   ---   --   ---xx   flac  0.4319  trey2010-02-28d02t04.flac
     1:53.21       19982636 B   ---   --   ---xx   flac  0.3818  trey2010-02-28d02t05.flac
     3:54.12       41305868 B   ---   --   ---xx   flac  0.3876  trey2010-02-28d02t06.flac
     3:30.41       37140476 B   ---   --   ---xx   flac  0.4788  trey2010-02-28d02t07.flac
     4:05.64       43368572 B   ---   --   ---xx   flac  0.4815  trey2010-02-28d02t08.flac
     3:39.11       38657516 B   ---   --   ---xx   flac  0.5215  trey2010-02-28d02t09.flac
     0:24.53        4358300 B   ---   --   ---xx   flac  0.3328  trey2010-02-28d02t10.flac
     6:02.65       64009724 B   ---   --   ---xx   flac  0.5438  trey2010-02-28d02t11.flac
    12:00.63      127156220 B   ---   --   ---xx   flac  0.5467  trey2010-02-28d02t12.flac
     3:14.25       34280444 B   ---   --   ---xx   flac  0.4159  trey2010-02-28d02t13.flac
     9:44.17      103057628 B   ---   --   ---xx   flac  0.4928  trey2010-02-28d02t14.flac
     7:56.20       84013484 B   ---   --   ---xx   flac  0.5390  trey2010-02-28d03t01.flac
     8:30.64       90114572 B   ---   --   ---xx   flac  0.5470  trey2010-02-28d03t02.flac
    11:17.21      119472236 B   ---   --   ---xx   flac  0.5599  trey2010-02-28d03t03.flac
     6:33.00       69325244 B   ---   --   ---xx   flac  0.5388  trey2010-02-28d03t04.flac
    10:30.38      111221420 B   ---   --   ---xx   flac  0.5858  trey2010-02-28d03t05.flac
     6:28.72       68612588 B   ---   --   ---xx   flac  0.5787  trey2010-02-28d03t06.flac
     0:25.09        4431212 B   ---   --   ---xx   flac  0.3922  trey2010-02-28d03t07.flac
     3:14.46       34329836 B   ---   --   ---xx   flac  0.5317  trey2010-02-28d03t08.flac
     3:51.01       40750796 B   ---   --   ---xx   flac  0.5662  trey2010-02-28d03t09.flac
     1:43.39       18260972 B   ---   --   ---xx   flac  0.4208  trey2010-02-28d03t10.flac
     8:49.52       93437948 B   ---   --   ---xx   flac  0.5907  trey2010-02-28d03t11.flac
   213:22.26     2258335536 B                            0.5305  (36 files)



Show Checksums
16bit-FFP
trey2010-02-28d01t01.flac:7d6b50db9274d89640130fd746bf305d
trey2010-02-28d01t02.flac:38ddabeaf3602329b6f22cb2b1a74c02
trey2010-02-28d01t03.flac:7a27034cd9f4e9bce3769beefd1badd2
trey2010-02-28d01t04.flac:85f0a03c28f74afb62b7b29f7e75a1d8
trey2010-02-28d01t05.flac:3266c5bf1140191319450ea3f6da12da
trey2010-02-28d01t06.flac:0379a5caeeb48a1ab0dcb0d46739d2f0
trey2010-02-28d01t07.flac:bcc088716c884265ab7608af6159500e
trey2010-02-28d01t08.flac:d2b20ecb3ca623c562b3c2275fbad6c1
trey2010-02-28d01t09.flac:92f914f532a3a4f13b4dbf78ec09d7ce
trey2010-02-28d01t10.flac:e4123a4fd292f49da500f4a24b678af7
trey2010-02-28d01t11.flac:7d455ac6e115e5a6b4e1c60fdde17414
trey2010-02-28d02t01.flac:37a94afc14016c7a3a9901186e5e02f7
trey2010-02-28d02t02.flac:7eb1992d7441413f75676e1f4170c9be
trey2010-02-28d02t03.flac:e21ec58e3d995bb397e5baaa4b887cef
trey2010-02-28d02t04.flac:edb592955eda151b59a15bb393a7127c
trey2010-02-28d02t05.flac:c2395bafafe7ba7caffd12d465577c6d
trey2010-02-28d02t06.flac:59ba12c06b4e4264c83927b1619acdae
trey2010-02-28d02t07.flac:25e2b544a7d52574cedca8cb5a239b11
trey2010-02-28d02t08.flac:2a8727fc45d9d8031932b588c90dfd04
trey2010-02-28d02t09.flac:3c978f67264f886ce7d68c5febcd717c
trey2010-02-28d02t10.flac:cba75fdeb79d512507158254168b1fb0
trey2010-02-28d02t11.flac:77cd4de03d46ceb0e157b9ebf5f8153f
trey2010-02-28d02t12.flac:940118e7514bebd80355a346b26c6de4
trey2010-02-28d02t13.flac:35a00b7a7532e7c1cba4166e229c687c
trey2010-02-28d02t14.flac:6e62e27d458e20f1a2b2d23359c5d70a
trey2010-02-28d03t01.flac:2b0357971b4dffde2f3c6127027daf2f
trey2010-02-28d03t02.flac:2a4e0a3bdf5843d4a73c575a9afe6f2b
trey2010-02-28d03t03.flac:a1a0e2d5312e4a73016d5a08429d0b86
trey2010-02-28d03t04.flac:4fadac24ec395ac6b0b42895eec5f19c
trey2010-02-28d03t05.flac:301621e8511d844c8a8756d29ea5c122
trey2010-02-28d03t06.flac:98816061500c6bb386277cbb78e0788d
trey2010-02-28d03t07.flac:81add7c45d1aa0f0cf01cbbd440260d1
trey2010-02-28d03t08.flac:a48acf6727ed55780e2d2f22f223ade5
trey2010-02-28d03t09.flac:9ee2ce57db82cc20b94744d8e26449ad
trey2010-02-28d03t10.flac:51176c3ba7ed31f5f66bf2ce56f38166
trey2010-02-28d03t11.flac:a77a7d03ee043445a86f0af6afe1454c

Comments
Add Comment
Other Sources (comments)
(FOB) Schoeps mk22 > KCY >... (0) (FOB) Schoeps mk41 > Nbox >... (0)
Date User Comment