Browse Collections Artists Sources   Search Dates

Add Show    List Management    Help


Grateful Dead 07/02/89
Sullivan Stadium, Foxboro, MA
Comments Add Comment    Source Collectors    Add to Collection    Add to Want List    History
Source # 106586 Other Sources
Entered by Darryl Hinko
Checksums flac-md5 , ffp
Disc Counts 2 / 2
Media Size
Date Circulated
Date Added
03/17/2010
03/17/2010
Source Summary flac16; Nakamichi CM-300 (CP-4) x2 > Cassette Master (Sony TCD5M/Maxell MX 90) Cassette Master (Nakamichi DR-1) > Korg MR-1000 (1-bit/5.6MHz) > Audiogate (1-bit/5.6MHz > 16-bit/44.1KHz) > cdwav (edits); Recorded by Bob Morris 
  Archive
Source Information - Download Text | Download Zip
Grateful Dead - July 2, 1989
Sullivan Stadium - Foxboro, Massachusetts

Nakamichi CM-300 (CP-4) x2 > Cassette Master
(Sony TCD5M/Maxell MX 90)

Cassette Master (Nakamichi DR-1) > Korg MR-1000 (1-bit/5.6MHz) >
Audiogate (1-bit/5.6MHz > 16-bit/44.1KHz) > cdwav (edits)

Disc One

Set 1:

01 tuning
02 Playing in the Band ->
03 Crazy Fingers ->
04 Wang Dang Doodle
05 We Can Run
06 Tennessee Jed
07 Queen Jane Approximately
08 tuning
09 To Lay Me Down
10 Cassidy ->
11 Don't Ease Me In

Set 2:

12 Friend of the Devil

Disc Two

Set 2 (cont.):

01 Truckin' ->
02 He's Gone ->
03 Eyes of the World ->
04 Drums ->
05 Space ->
06 The Wheel ->
07 Dear Mr Fantasy ->
08 Hey Jude reprise ->
09 Sugar Magnolia

(missing encore: The Mighty Quinn)

Notes - Tape flip in Drums spliced at 3:52 using Soundforge 9.0.
Recorded by Bob Morris -- thanks to Sam for help.
Transferred & edited by Bob Morris, November 2009.
Flaced and shared by Chuck T./Crazyfingers


    length     expanded size    cdr  WAVE problems  fmt   ratio  filename
     1:47.15       18910124 B   ---   --   ---xx   flac  0.4743  gd89-07-02d1t01.flac
     1:47.15       18910124 B   ---   --   -----    wav  1.0000  gd89-07-02d1t01.wav
     5:20.41       56544476 B   ---   --   ---xx   flac  0.5708  gd89-07-02d1t02.flac
     5:20.41       56544476 B   ---   --   -----    wav  1.0000  gd89-07-02d1t02.wav
     7:34.41       80182076 B   ---   --   ---xx   flac  0.5830  gd89-07-02d1t03.flac
     7:34.41       80182076 B   ---   --   -----    wav  1.0000  gd89-07-02d1t03.wav
     7:02.47       74551388 B   ---   --   ---xx   flac  0.5916  gd89-07-02d1t04.flac
     7:02.47       74551388 B   ---   --   -----    wav  1.0000  gd89-07-02d1t04.wav
     5:19.30       56342204 B   ---   --   ---xx   flac  0.5901  gd89-07-02d1t05.flac
     5:19.30       56342204 B   ---   --   -----    wav  1.0000  gd89-07-02d1t05.wav
     8:15.06       87332156 B   ---   --   ---xx   flac  0.5929  gd89-07-02d1t06.flac
     8:15.06       87332156 B   ---   --   -----    wav  1.0000  gd89-07-02d1t06.wav
     5:45.62       61003868 B   ---   --   ---xx   flac  0.6070  gd89-07-02d1t07.flac
     5:45.62       61003868 B   ---   --   -----    wav  1.0000  gd89-07-02d1t07.wav
     0:20.69        3690332 B   ---   --   ---xx   flac  0.4570  gd89-07-02d1t08.flac
     0:20.69        3690332 B   ---   --   -----    wav  1.0000  gd89-07-02d1t08.wav
     9:33.54      101204252 B   ---   --   ---xx   flac  0.5346  gd89-07-02d1t09.flac
     9:33.54      101204252 B   ---   --   -----    wav  1.0000  gd89-07-02d1t09.wav
     6:01.72       63849788 B   ---   --   ---xx   flac  0.6158  gd89-07-02d1t10.flac
     6:01.72       63849788 B   ---   --   -----    wav  1.0000  gd89-07-02d1t10.wav
     3:12.48       33981740 B   ---   --   ---xx   flac  0.6095  gd89-07-02d1t11.flac
     3:12.48       33981740 B   ---   --   -----    wav  1.0000  gd89-07-02d1t11.wav
    10:53.60      115330364 B   ---   --   ---xx   flac  0.5701  gd89-07-02d1t12.flac
    10:53.60      115330364 B   ---   --   -----    wav  1.0000  gd89-07-02d1t12.wav
     7:12.32       76280108 B   ---   --   ---xx   flac  0.5960  gd89-07-02d2t01.flac
     7:12.32       76280108 B   ---   --   -----    wav  1.0000  gd89-07-02d2t01.wav
    13:44.37      145440668 B   ---   --   ---xx   flac  0.5319  gd89-07-02d2t02.flac
    13:44.37      145440668 B   ---   --   -----    wav  1.0000  gd89-07-02d2t02.wav
    10:37.17      112406828 B   ---   --   ---xx   flac  0.5814  gd89-07-02d2t03.flac
    10:37.17      112406828 B   ---   --   -----    wav  1.0000  gd89-07-02d2t03.wav
     8:29.57       89921708 B   ---   --   ---xx   flac  0.4769  gd89-07-02d2t04.flac
     8:29.57       89921708 B   ---   --   -----    wav  1.0000  gd89-07-02d2t04.wav
     9:52.42      104527628 B   ---   --   ---xx   flac  0.4640  gd89-07-02d2t05.flac
     9:52.42      104527628 B   ---   --   -----    wav  1.0000  gd89-07-02d2t05.wav
     4:59.68       52903580 B   ---   --   ---xx   flac  0.5711  gd89-07-02d2t06.flac
     4:59.68       52903580 B   ---   --   -----    wav  1.0000  gd89-07-02d2t06.wav
     7:08.55       75628604 B   ---   --   ---xx   flac  0.5883  gd89-07-02d2t07.flac
     7:08.55       75628604 B   ---   --   -----    wav  1.0000  gd89-07-02d2t07.wav
     3:32.60       37537964 B   ---   --   ---xx   flac  0.5937  gd89-07-02d2t08.flac
     3:32.60       37537964 B   ---   --   -----    wav  1.0000  gd89-07-02d2t08.wav
     8:58.12       94931468 B   ---   --   ---xx   flac  0.5846  gd89-07-02d2t09.flac
     8:58.12       94931468 B   ---   --   -----    wav  1.0000  gd89-07-02d2t09.wav
   291:28.50     3085002648 B                            0.7813  (42 files)
Show Checksums
flac-md5
acd2370a50882e48e8ca9788dedf199b *gd89-07-02d1t01.flac
888b13c279bb812b477c8af873575da9 *gd89-07-02d1t02.flac
d2539a2e47718b3d7e993f6e61fea183 *gd89-07-02d1t03.flac
f77ca8d4e6473029a74454091bf2cdc5 *gd89-07-02d1t04.flac
023080099163493a3400da0423dcb674 *gd89-07-02d1t05.flac
e60b108d311c55631a9e35f103760725 *gd89-07-02d1t06.flac
01fdf85a705117f6987b8caaa1076d8a *gd89-07-02d1t07.flac
d116a87b1689393e7feda4f0f9ac2933 *gd89-07-02d1t08.flac
6f7d8c29b9c1512bb0a72e09edadf48a *gd89-07-02d1t09.flac
e2e127b9728779151bd761738b955fb2 *gd89-07-02d1t10.flac
179b44aaec595103a2857b842011200c *gd89-07-02d1t11.flac
8577ecbc40036cd70533fe2f2613ccaa *gd89-07-02d1t12.flac
0a617d5546d64bf4bca3588fa807e9b9 *gd89-07-02d2t01.flac
77abc36c6cb63cb827e903d745bc02c3 *gd89-07-02d2t02.flac
9d6be69b29a99b413b61b1f812615234 *gd89-07-02d2t03.flac
1ea10c59291fa237c4fd40fa078b12c0 *gd89-07-02d2t04.flac
245fb30a513cdc7b5404862740ae82b8 *gd89-07-02d2t05.flac
bf6851097a32606b72171688214a5293 *gd89-07-02d2t06.flac
1d47419f58a55899e7bd9fa0d04627e3 *gd89-07-02d2t07.flac
c4d9835222239ef9ad4353584e8df914 *gd89-07-02d2t08.flac
e3c6422506445163826052ba76e48c9e *gd89-07-02d2t09.flac
ffp
gd89-07-02d1t01.flac:85af7cfe310817d59d82dab39c9fcb92
gd89-07-02d1t02.flac:e838c4604a3694b1ccb59fc71ad853cf
gd89-07-02d1t03.flac:d05d71b2f31a011386bcba2410a4ab25
gd89-07-02d1t04.flac:a2723ac25a5fd9570aea92d316c7c90b
gd89-07-02d1t05.flac:b54a71a7b0fca418f0f67dfcb90b9fdc
gd89-07-02d1t06.flac:621a6c62d9c57e4b4eefc46ff9df7b41
gd89-07-02d1t07.flac:c97d6226234fc39b72820ac69ccbf906
gd89-07-02d1t08.flac:0c879afd6573213da7748d3fc833f3a0
gd89-07-02d1t09.flac:7075cb82ed78bcb16c415214077fce49
gd89-07-02d1t10.flac:a102db596f851d757459594678b4851f
gd89-07-02d1t11.flac:e8f9a8bb2e087216f9137970c2a49875
gd89-07-02d1t12.flac:04f4ba9aa8c787f0db0fd037f7ec067e
gd89-07-02d2t01.flac:d19e9baab11421d9c68b34d5cc8707da
gd89-07-02d2t02.flac:fdde98d043286330a7b95dcc56576dba
gd89-07-02d2t03.flac:3ff131951cee51c55251f1bb0855e4e0
gd89-07-02d2t04.flac:7873cc69d04c7d59693444345ba37e3c
gd89-07-02d2t05.flac:a72e606eda2869c8c6d7034c738407a0
gd89-07-02d2t06.flac:cdfe28170965a0051fa984e8c9382108
gd89-07-02d2t07.flac:ad2ebb81e5acc80491c51d8870fccbee
gd89-07-02d2t08.flac:0acbca331478cc44120a0b86ef228a0b
gd89-07-02d2t09.flac:5a5da9b889e531c9c4daaa1f1c7406b4

Comments
Add Comment
Other Sources (comments)
FOB Schoeps CMC42s spaced... (2) Digital Audience - Jill &... (0) flac16; AKG... (1) flac16; FOB Schoeps... (0) flac16; SRC: FOB... (0) flac24; SRC: FOB... (1) flac16; Source:... (0) flac24/96; Taper:... (0) flac24; FOB AUD:... (0) flac16; FOB AUD:... (0) flac16; Source:... (0) flac16; Source: AKG... (1) flac16; Source:... (0) flac16; Ted Mattes... (0) flac24; Recording... (0) flac16; Recording... (0)
Date User Comment