Browse Collections Artists Sources   Search Dates

Add Show    List Management    Help


Jerry Garcia Band 02/04/90
Warfield Theater, San Francisco, CA
Comments Add Comment    Source Collectors    Add to Collection    Add to Want List    History
Source # 106933 Other Sources
Entered by Joe Jupille
Checksums flac-md5 , ffp
Disc Counts 1 / 2
Media Size
Date Circulated
Date Added
03/03/2010
04/05/2010
Source Summary flac1644; MSC > Cx > CDR > WAV > SHN > FLAC. May be derived from shnid 22897
Source Information - Download Text | Download Zip
Notes: This source was circulated using the info file for shnid 22897.  This is not that source since the shntool timings do not match the track times in the shnid 22897 info file.  Also, the md5 signatures don't match whether seek tables are appended or not.  Sonically it seem consistent with the 22897 description and with nearly identical tracks.  Since it claims to be a sbd (and could be based on the nearness of Jerry's vocals) and the 22897 source is not circulating,  this version is offered up as I received it except I reencode to flac level 8.

M. Vernon 3/3/2010

shntool 3.0.4

    length     expanded size    cdr  WAVE problems  fmt   ratio  filename
     9:53.35      104687564 B   ---   --   -----    wav  1.0000  jgb90-02-04d1t01.wav
    11:58.46      126763436 B   ---   --   -----    wav  1.0000  jgb90-02-04d1t02.wav
     9:56.73      105306140 B   ---   --   -----    wav  1.0000  jgb90-02-04d2t01.wav
     7:22.16       78006476 B   ---   --   -----    wav  1.0000  jgb90-02-04d2t02.wav
     7:42.36       81581516 B   ---   --   -----    wav  1.0000  jgb90-02-04d2t03.wav
     7:44.53       81974300 B   ---   --   -----    wav  1.0000  jgb90-02-04d2t04.wav
     6:18.18       66721580 B   ---   --   -----    wav  1.0000  jgb90-02-04d2t05.wav
    11:26.71      121177436 B   ---   --   -----    wav  1.0000  jgb90-02-04d2t06.wav
    12:07.73      128414540 B   ---   --   -----    wav  1.0000  jgb90-02-04d2t07.wav
    84:31.46      894632988 B                            1.0000  (9 files)


---------------begin 22897 info file---------------------
Jerry Garcia Band
02-04-1990
Warfield Theater
San Francisco, CA  

Source:  MSC > Cx > CDR>WAV>SHN.

Disc 1 - Set 1  ***
MISSING  I'll Take A Melody  
01  Get Out Of My Life Woman  [08:49]
02  Simple Twist Of Fate//  [11:58]
MISSING  Run For The Roses  
MISSING  Like A Road  
MISSING  Tears Of Rage  
MISSING  Deal  
Total time:  20:48

Disc 2 - Set 2  
01  Let's Spend The Night Together  [10:06]
02  Senor (Tales Of Yankee Power)  [07:15]
03  Think  [07:46]
04  And It Stoned Me//  [07:40]
05  //Waiting For A Miracle  [06:16]
06  That Lucky Old Sun (Just Rolls Around Heaven All Day)  [11:28]
07  Tangled Up In Blue  12:06
Total time:  62:37

Comments:  Multianalog generation SBD recording with a moderate amount of hiss.  Some hiss and phasing most noticeable on quieter songs.  If this really bothers you, pretend that the tape you are listening to spent 4 years sliding around the dashboard of Jerry's BMW as he cruised around Marin, soaking up all the UV radiation and heat, maybe he even dropped it on the floor where some Jerry dirt/Garcia fuzz got on it before some enterprising and blessed thief pilfered it for us to listen to.  Its sounding a whole lot better, right?

*** The two tracks from the first set can be burnt with the first set from 2/3/90 for a 79 minute disc.

CDR source via H.Angus.
DAE(EAC0.9b4, offset corrected secure mode)>tracking(cdwav editor)>sector boundaries confirmed(shntool)>SHN(mkwact) via C.Ladner.

misSHN in the rain, 3/04.
Show Checksums
flac-md5
2a1647385be89c354794d36d76b2dae8 *jgb90-02-04d1t01.flac
e34d303b154de083f24327a01779f6f5 *jgb90-02-04d1t02.flac
54e9793b1bbed3a14afadf00e148e092 *jgb90-02-04d2t01.flac
1dbb7b35f97be7c3d6f21c288cc26331 *jgb90-02-04d2t02.flac
4a4f5f16bfd0b50d7ac18671df87543b *jgb90-02-04d2t03.flac
a4cd1fd157332584c908483b0bc47b44 *jgb90-02-04d2t04.flac
c1aa654a226f44bd5f8f9783a261e7e6 *jgb90-02-04d2t05.flac
9f0479bc56bdce6cff602be549342ef6 *jgb90-02-04d2t06.flac
de95a34d6c0fc19bd06c6d150b8cbf39 *jgb90-02-04d2t07.flac
ffp
jgb90-02-04d1t01.flac:5f83199fa3d4b6320dc1b41f2d1b7715
jgb90-02-04d1t02.flac:7f6c1e901325a47d4e0cfa86e09a09aa
jgb90-02-04d2t01.flac:e372d0703dad475e53e482c06a511067
jgb90-02-04d2t02.flac:591eeb800d1539ce9f1b5ef7663b8a3f
jgb90-02-04d2t03.flac:39401013ad056ba7abebf1719c70ecb8
jgb90-02-04d2t04.flac:40269982ebfea74aed1261b059f34c3f
jgb90-02-04d2t05.flac:e43e9256e2d9fbd184151c4620b3562c
jgb90-02-04d2t06.flac:466326dae69a2a1c3c5a6387a81a7234
jgb90-02-04d2t07.flac:74ab2af4e84ecb033882365cacd5280b

Comments
Add Comment
Other Sources (comments)
flac1644; SBD > Line feed... (0)
Date User Comment