Browse Collections Artists Sources   Search Dates

Add Show    List Management    Help


Garcia 11/02/74
Keystone, Berkeley, CA
Comments Add Comment    Source Collectors    Add to Collection    Add to Want List    History
Source # 110552 Other Sources
Entered by Joe Jupille
Checksums flac-md5 , ffp
Disc Counts 0 / 0
Media Size
Date Circulated
Date Added
11/03/2010
11/04/2010
Source Summary flac1644; MOTB 0158; Robert Castelli's 1 x Sony ECM 270 >> Sony TC 110 >> MA C; MAC >> Nakamichi CR7a => Korg MR-1000 >> DSF [1-bit 5.6448 MHz Stereo] >> Korg MR-1000 => Korg AudioGate >> WAV [24/96] ... FLAC1644. Transfer By: Bob Menke; Mastering By: Derek McCabe. 
Source Information - Download Text | Download Zip
MOTB Release: 0158 16/44.1
Release Date: 2010-11-03
Band: Jerry Garcia Band
Date: 1974-11-02 (Saturday)
Venue: Keystone
Location: Berkley, CA
Analog Audience Source: FOB Master Cassettes (MAC)
Medium Stock Brands: MAC = 2 x Maxell UD C-90
Analog Lineage: 1 x Sony ECM 270 >> Sony TC 110 >> MAC
Analog Sound Preservation: MAC >> Nakamichi CR7a => Korg MR-1000 >> DSF [1-bit 5.6448 MHz Stereo] >> Korg MR-1000 => Korg AudioGate >> WAV [24/96]
Taped By: Robert Castelli
Transfer By: Bob Menke
Mastering By: Derek McCabe

Set 1:
Disc One
d1t01: Neighbor, Neighbor
d1t02: Valdez In The Country
d1t03: Freedom Jazz Dance
d1t04: Tough Mama
d1t05: You Can Leave Your Hat On
d1t06: That's The Touch I Like

Set 2:
Disc Two
d2t01: Wondering Why
d2t02: People Make The World Go Round
d2t03: Mystery Train
d2t04: It's Too Late
d2t05: Favela
d2t06: Boogie On Reggae Woman

Notes: There are many areas were the mics get overloaded and the sound gets distorted.

SHN TOOL:
    length     expanded size    cdr  WAVE problems  fmt   ratio  filename
    10:34.23      111891740 B   ---   --   ---xx   flac  0.4914  jgb1974-11-02.gs.aud.castelli.motb.d1t01.flac
    11:03.23      117007340 B   ---   --   ---xx   flac  0.4827  jgb1974-11-02.gs.aud.castelli.motb.d1t02.flac
    10:59.23      116301740 B   ---   --   ---xx   flac  0.4854  jgb1974-11-02.gs.aud.castelli.motb.d1t03.flac
     9:34.63      101401820 B   ---   --   ---xx   flac  0.4940  jgb1974-11-02.gs.aud.castelli.motb.d1t04.flac
    12:07.14      128275772 B   ---   --   ---xx   flac  0.4563  jgb1974-11-02.gs.aud.castelli.motb.d1t05.flac
     9:07.56       96622556 B   ---   --   ---xx   flac  0.4903  jgb1974-11-02.gs.aud.castelli.motb.d1t06.flac
    20:52.56      220984556 B   ---   --   ---xx   flac  0.4470  jgb1974-11-02.gs.aud.castelli.motb.d2t01.flac
     3:49.36       40480316 B   ---   --   ---xx   flac  0.4206  jgb1974-11-02.gs.aud.castelli.motb.d2t02.flac
    13:50.42      146510828 B   ---   --   ---xx   flac  0.4974  jgb1974-11-02.gs.aud.castelli.motb.d2t03.flac
    12:13.22      129352988 B   ---   --   ---xx   flac  0.4439  jgb1974-11-02.gs.aud.castelli.motb.d2t04.flac
    19:24.74      205503692 B   ---   --   ---xx   flac  0.4492  jgb1974-11-02.gs.aud.castelli.motb.d2t05.flac
    14:51.67      157330028 B   ---   --   ---xx   flac  0.4542  jgb1974-11-02.gs.aud.castelli.motb.d2t06.flac
   148:29.49     1571663376 B                            0.4669  (12 files)
Show Checksums
flac-md5
83e39f98396346e1bc6eddd8569789bf *jgb1974-11-02.gs.aud.castelli.motb.d1t01.flac
aa0c571c2d367794c58537a4aaa1c42b *jgb1974-11-02.gs.aud.castelli.motb.d1t02.flac
c75788736b1ae4587fb6d4c29d42a4fc *jgb1974-11-02.gs.aud.castelli.motb.d1t03.flac
5f7cf8b940ca81d32118282f2796a495 *jgb1974-11-02.gs.aud.castelli.motb.d1t04.flac
5868954d89bcbd16a3671170fd17d6fd *jgb1974-11-02.gs.aud.castelli.motb.d1t05.flac
cfdbf9c3ef2e4163ba04593416c11cbd *jgb1974-11-02.gs.aud.castelli.motb.d1t06.flac
5e6c01ebaff67b9f908462862914b297 *jgb1974-11-02.gs.aud.castelli.motb.d2t01.flac
93a9d3c3d05ce2639a1c694dc577df0d *jgb1974-11-02.gs.aud.castelli.motb.d2t02.flac
876d62747dafa07eab05d9f420afbeab *jgb1974-11-02.gs.aud.castelli.motb.d2t03.flac
3dd3f8a833c3ca05063070f003d00996 *jgb1974-11-02.gs.aud.castelli.motb.d2t04.flac
65046e2d9087ffa57676b7f7c8491d4e *jgb1974-11-02.gs.aud.castelli.motb.d2t05.flac
bed3073008a6d5cd626854ee96a9451a *jgb1974-11-02.gs.aud.castelli.motb.d2t06.flac
ffp
jgb1974-11-02.gs.aud.castelli.motb.d1t01.flac:12f8a07bc280e43fdb409c42583b3413
jgb1974-11-02.gs.aud.castelli.motb.d1t02.flac:6c0a47ef252df0aef38e608465b00ee9
jgb1974-11-02.gs.aud.castelli.motb.d1t03.flac:eaa81c44489fd49c0485b821daf057c6
jgb1974-11-02.gs.aud.castelli.motb.d1t04.flac:a25e3b911a8962b0f670818a8dfbf4fe
jgb1974-11-02.gs.aud.castelli.motb.d1t05.flac:d65b510bbb8b5500187d8d4bbf2b80a3
jgb1974-11-02.gs.aud.castelli.motb.d1t06.flac:0f811a6b827f8651546c2d625460bd49
jgb1974-11-02.gs.aud.castelli.motb.d2t01.flac:1206989fcdaf19f6b7b7af8167a15434
jgb1974-11-02.gs.aud.castelli.motb.d2t02.flac:bd140b36d11739a8c2939bd1083d7e97
jgb1974-11-02.gs.aud.castelli.motb.d2t03.flac:61319c619049e3ab42f05c38a5dd39ad
jgb1974-11-02.gs.aud.castelli.motb.d2t04.flac:226458a1154479aaa5e239cfeea5845d
jgb1974-11-02.gs.aud.castelli.motb.d2t05.flac:ef37ace593adfdeb0fc84e2583169ca4
jgb1974-11-02.gs.aud.castelli.motb.d2t06.flac:7304afcc4a48777a0668281780bca3e0

Comments
Add Comment
Other Sources (comments)
MOTB Release: 0158 24/96... (0)
Date User Comment