Browse Collections Artists Sources   Search Dates

Add Show    List Management    Help


Great American Music Band 06/13/74
Keystone, Berkeley, CA
Comments Add Comment    Source Collectors    Add to Collection    Add to Want List    History
Source # 110663 Other Sources
Entered by Joe Jupille
Checksums md5 , ffp
Disc Counts 1 / 2
Media Size
Date Circulated
Date Added
11/10/2010
11/12/2010
Source Summary flac1644; motb 0159; Robert Castelli; Analog Audience Source: Master Cassettes (MAC) Medium Stock Brands: Scotch C120; Analog Lineage: ECM 270 >> Sony TC110 >> MAC Analog Sound Preservation: MAC >> Nakamichi CR7a => Korg MR-1000 >> DSF [1-bit 5.6448 MHz Stereo] >> Korg MR-1000 => Korg AudioGate >> WAV [24/96] ... FLAC1644. Transfer by Bob Menke, mastering by Derek McCabe & David Minches, speed correction by Joe B. Jones. 
Source Information - Download Text | Download Zip
MOTB Release: 0159 16/44.1
Release Date: 2010-11-10
Band: Great American String Band
Date: 1974-06-13 (Thursday)
Venue: Keystone
Location: Berkeley, CA
Analog Audience Source: Master Cassettes (MAC)
Medium Stock Brands: Scotch C120
Analog Lineage: ECM 270 >> Sony TC110 >> MAC
Analog Sound Preservation: MAC >> Nakamichi CR7a => Korg MR-1000 >> DSF [1-bit 5.6448 MHz Stereo] >> Korg MR-1000 => Korg AudioGate >> WAV [24/96]
Taped By: Robert Castelli
Transfer By: Bob Menke
Mastering By: Derek McCabe & David Minches
Speed correction by Joe B. Jones

Set 1:
s1t01: Colored Aristocracy
s1t02: Cedar Hill
s1t03: I'll Be A Gambler If You Deal The Cards
s1t04: My Plastic Banana Is Not Stupid
s1t05: Moonlight Waltz
s1t06: Swing '42
s1t07: Methodist Preacher
s1t08: Limehouse Blues

Set 2:
s2t01: Tuning
s2t02: Bud's Bounce
s2t03: Dawg's Bull
s2t04: Banter
s2t05: Russian Lullaby  
s2t06: Virgin's Lament
s2t07: Swing '42  
s2t08: Drink Up and Go Home
s2t09: Dawg's Rag
s2t10: Sweet Georgia Brown

SHN TOOL:

    length     expanded size    cdr  WAVE problems  fmt   ratio  filename
     3:49.66       40550876 B   ---   --   ---xx   flac  0.5344  jg1974-06-13d1t01.flac
     5:35.42       59192828 B   ---   --   ---xx   flac  0.5310  jg1974-06-13d1t02.flac
     5:11.63       55008620 B   ---   --   ---xx   flac  0.5259  jg1974-06-13d1t03.flac
     3:22.43       35733980 B   ---   --   ---xx   flac  0.5271  jg1974-06-13d1t04.flac
     6:57.19       73603532 B   ---   --   ---xx   flac  0.5485  jg1974-06-13d1t05.flac
     6:48.10       71994764 B   ---   --   ---xx   flac  0.5708  jg1974-06-13d1t06.flac
     6:35.58       69814460 B   ---   --   ---xx   flac  0.5916  jg1974-06-13d1t07.flac
     3:12.14       33901772 B   ---   --   ---xx   flac  0.5713  jg1974-06-13d1t08.flac
     0:01.08         195260 B   --s   --   ---xx   flac  0.1656  jg1974-06-13d2t01.flac
     6:15.23       66204140 B   ---   --   ---xx   flac  0.5455  jg1974-06-13d2t02.flac
     2:33.74       27163292 B   ---   --   ---xx   flac  0.5553  jg1974-06-13d2t03.flac
     1:01.45       10866284 B   ---   --   ---xx   flac  0.5239  jg1974-06-13d2t04.flac
     9:09.57       96977708 B   ---   --   ---xx   flac  0.5310  jg1974-06-13d2t05.flac
     7:54.54       83740652 B   ---   --   ---xx   flac  0.5415  jg1974-06-13d2t06.flac
    12:19.67      130517228 B   ---   --   ---xx   flac  0.5423  jg1974-06-13d2t07.flac
     3:13.44       34148732 B   ---   --   ---xx   flac  0.5358  jg1974-06-13d2t08.flac
     8:48.32       93214508 B   ---   --   ---xx   flac  0.5311  jg1974-06-13d2t09.flac
     4:59.45       52849484 B   ---   --   ---xx   flac  0.5444  jg1974-06-13d2t10.flac
    97:51.14     1035678120 B                            0.5447  (18 files)
Show Checksums
md5
c9662465ddb5aeaeaf0139a8a9c693f9 *jg1974-06-13d1t01.flac
46da2ceb79c359ee6d83286652ed48bd *jg1974-06-13d1t02.flac
eb8bb4bd5619a83114705f8859da1c22 *jg1974-06-13d1t03.flac
b1c6268c565c8383046b8828ebc82dd2 *jg1974-06-13d1t04.flac
4c98e48692fe961600986d20ff3baf05 *jg1974-06-13d1t05.flac
f84aecec5dbd3ad77c5e18fef5dc33c1 *jg1974-06-13d1t06.flac
7161167a6ad93b2f629030d27bac9ae0 *jg1974-06-13d1t07.flac
abecf018af3e4912918379617df39041 *jg1974-06-13d1t08.flac
5505b3ab2e15f36e438909b1ff33f24a *jg1974-06-13d2t01.flac
69c7f0ee6b1702b5f0a31f7f3d872664 *jg1974-06-13d2t02.flac
f501434893c0d971e8f471afff43f023 *jg1974-06-13d2t03.flac
988a95bad797bf9a5acf417696f0f6f8 *jg1974-06-13d2t04.flac
f67d994d7db543678301653384491051 *jg1974-06-13d2t05.flac
a29219250829bad0e4acee389e40ff7f *jg1974-06-13d2t06.flac
aa86cc6a30877ce7a7352cf5263929d7 *jg1974-06-13d2t07.flac
004ec892a4e1026c3ae16e2741542bd1 *jg1974-06-13d2t08.flac
52a4dff663bdbdfd2f8657b54bc2f927 *jg1974-06-13d2t09.flac
0ebb61ef26d898631100a0bbd59f30f1 *jg1974-06-13d2t10.flac
ffp
jg1974-06-13d1t01.flac:baee598a86e0b04fd60d75c08a214d4c
jg1974-06-13d1t02.flac:112586a69957e579e8963ec8e04a2d23
jg1974-06-13d1t03.flac:baf4e4430e2af699ec22cb104474b106
jg1974-06-13d1t04.flac:9d25983e3f90ba69ed667a409bafb496
jg1974-06-13d1t05.flac:94d33439a28f319e3af148d9a8bf58c8
jg1974-06-13d1t06.flac:d37cd1bc9bf4d88d4f9bf9e297b6ba13
jg1974-06-13d1t07.flac:3c866f86985c6dd4863923581f8ff7e0
jg1974-06-13d1t08.flac:7ffd5efde0fb4d90094b63e3a9f470ec
jg1974-06-13d2t01.flac:e986bb7be25cc86935aa22171505b1de
jg1974-06-13d2t02.flac:a3ad5ca398721eb7b9dc52660acd08c9
jg1974-06-13d2t03.flac:cc0d08be24cf3c32fcbac58491e26e11
jg1974-06-13d2t04.flac:9a7c5a8003c839e963fb0897dedbc300
jg1974-06-13d2t05.flac:922763bcfca5ff7d22e4b48858c407a9
jg1974-06-13d2t06.flac:f9381dcbd561988206897b46c51fa0fa
jg1974-06-13d2t07.flac:9c563b734a97f56ed91c36fa07cce6ca
jg1974-06-13d2t08.flac:11f2ae1b427f6fdfe2cf8b063a62e3d4
jg1974-06-13d2t09.flac:8adfe080d163e7fd36dff7391e29693f
jg1974-06-13d2t10.flac:2f11ad332cf1bf9a80cc48374ac7fd43

Comments
Add Comment
Date User Comment