Browse Collections Artists Sources   Search Dates

Add Show    List Management    Help


Garcia & Saunders 12/07/74
Keystone, Berkeley, CA
Comments Add Comment    Source Collectors    Add to Collection    Add to Want List    History
Source # 110683 Other Sources
Entered by Joe Jupille
Checksums flac-md5 , ffp
Disc Counts 0 / 0
Media Size
Date Circulated
Date Added
11/11/2010
11/14/2010
Source Summary flac1644; motb 0160; Robert Castelli; Sony ECM270 mic >> Sony TC110 >> MAC >> Nakamichi CR7a => Korg MR-1000 >> DSF [1-bit 5.6448 MHz Stereo] >> Korg MR-1000 => Korg AudioGate >> WAV [24/96] ... FLAC1644. Transfer By: Bob Menke; Mastering By: Derek McCabe. 
Source Information - Download Text | Download Zip
MOTB Release: 0160 16/44.1
Release Date: 2010-11-11
Band: Jerry Garcia Band
Date: 1974-12-07 (Saturday)
Venue: Keystone
Location: Berkeley, CA
Analog Audience Source: FOB Master Cassettes (MAC)
Medium Stock Brands: MAC = Maxell UD C90 & UD C120
Analog Lineage: sony ecm 270 mic >> sony tc110 >> MAC
Analog Sound Preservation: MAC >> Nakamichi CR7a => Korg MR-1000 >> DSF [1-bit 5.6448 MHz Stereo] >> Korg MR-1000 => Korg AudioGate >> WAV [24/96]
Taped By: Robert Castelli
Transfer By: Bob Menke
Mastering By: Derek McCabe

Set I
s1t01 That's The Touch I Like
s1t02 Valdez In The Country
s1t03 You Can Leave Your Hat On
s1t04 It Takes a Lot to Laugh, It Takes a Train to Cry
s1t05 Mystery Train

Set II
s2t01 Harder They Come
s2t02 Boogie On Reggae Woman
s2t03 It's Too Late
s2t04 Someday Baby
s2t05 (I'm A) Road Runner



Notes: s1t01 - 6:57 - 7:22 mic moves

Garcia & Saunders

SHN TOOL:

length     expanded size    cdr  WAVE problems  fmt   ratio  filename
     9:46.63      103518620 B   ---   --   ---xx   flac  0.4221  jg1974-12-07.gs.aud.castelli.menke.motb.d1t01.flac
    14:34.12      154201868 B   ---   --   ---xx   flac  0.4283  jg1974-12-07.gs.aud.castelli.menke.motb.d1t02.flac
    14:28.05      153127004 B   ---   --   ---xx   flac  0.4337  jg1974-12-07.gs.aud.castelli.menke.motb.d1t03.flac
     9:32.37      100987868 B   ---   --   ---xx   flac  0.3981  jg1974-12-07.gs.aud.castelli.menke.motb.d1t04.flac
    10:25.55      110379404 B   ---   --   ---xx   flac  0.4479  jg1974-12-07.gs.aud.castelli.menke.motb.d1t05.flac
    18:03.13      191071820 B   ---   --   ---xx   flac  0.4305  jg1974-12-07.gs.aud.castelli.menke.motb.d2t01.flac
    18:39.64      197542172 B   ---   --   ---xx   flac  0.4811  jg1974-12-07.gs.aud.castelli.menke.motb.d2t02.flac
    10:06.40      106992524 B   ---   --   ---xx   flac  0.4391  jg1974-12-07.gs.aud.castelli.menke.motb.d2t03.flac
    11:21.24      120184892 B   ---   --   ---xx   flac  0.4552  jg1974-12-07.gs.aud.castelli.menke.motb.d2t04.flac
    11:17.10      119446364 B   ---   --   ---xx   flac  0.4807  jg1974-12-07.gs.aud.castelli.menke.motb.d2t05.flac
   128:15.23     1357452536 B                            0.4436  (10 files)


Show Checksums
flac-md5
90dad1d0dc92818febcf1f5c1b69151c *jg1974-12-07.gs.aud.castelli.menke.motb.d1t01.flac
e8b895242651d12d8192ad8579426f60 *jg1974-12-07.gs.aud.castelli.menke.motb.d1t02.flac
adf409e08d5dae51674a29c862846e54 *jg1974-12-07.gs.aud.castelli.menke.motb.d1t03.flac
d368bae4677220469f67e1b6c2108a49 *jg1974-12-07.gs.aud.castelli.menke.motb.d1t04.flac
46fcae789e986ce042abe520ba72dbdf *jg1974-12-07.gs.aud.castelli.menke.motb.d1t05.flac
1739d114e25bc64a157ec34791ff3650 *jg1974-12-07.gs.aud.castelli.menke.motb.d2t01.flac
971d6ec98365083ea92126b043ea4e61 *jg1974-12-07.gs.aud.castelli.menke.motb.d2t02.flac
fb20138043969333a65d1616a868eeb0 *jg1974-12-07.gs.aud.castelli.menke.motb.d2t03.flac
532f0389d41fda17d1d5f8852d84d678 *jg1974-12-07.gs.aud.castelli.menke.motb.d2t04.flac
38dcd085e8ccec27e2975ca7a3b98bde *jg1974-12-07.gs.aud.castelli.menke.motb.d2t05.flac
ffp
jg1974-12-07.gs.aud.castelli.menke.motb.d1t01.flac:8b4f69dcb0c5463aaee0db68a0c61735
jg1974-12-07.gs.aud.castelli.menke.motb.d1t02.flac:a3f2131ccdcddd482231b9479d306fc1
jg1974-12-07.gs.aud.castelli.menke.motb.d1t03.flac:51256a017c0a9150d8f522c35819b78d
jg1974-12-07.gs.aud.castelli.menke.motb.d1t04.flac:61db8b111a137602dd679c556b2d6623
jg1974-12-07.gs.aud.castelli.menke.motb.d1t05.flac:d8ce3a0856f37de9256f9b451cbc0aff
jg1974-12-07.gs.aud.castelli.menke.motb.d2t01.flac:f57e60b727327c04d4e0b596dcef13ba
jg1974-12-07.gs.aud.castelli.menke.motb.d2t02.flac:0299ec784bd2a5f17beb84e69515fc4a
jg1974-12-07.gs.aud.castelli.menke.motb.d2t03.flac:732108e5dc5d4ced1f13e7f87892216b
jg1974-12-07.gs.aud.castelli.menke.motb.d2t04.flac:3d8dee698cad1988afc36d6d6c0ae115
jg1974-12-07.gs.aud.castelli.menke.motb.d2t05.flac:a5887090fab691ba16ce11ea437f6be6

Comments
Add Comment
Date User Comment