Browse Collections Artists Sources   Search Dates

Add Show    List Management    Help


Great American String Band 06/13/74
Keystone, Berkeley, CA
Comments Add Comment    Source Collectors    Add to Collection    Add to Want List    History
Source # 110798 Other Sources
Entered by Joe Jupille
Checksums ffp , md5
Disc Counts 3 / 0
Media Size
Date Circulated
Date Added
10/18/2010
11/21/2010
Source Summary flac2496; MOTB 0159; Analog Audience Source: Master Cassettes (MAC); Medium Stock Brands: Scotch C120; Analog Lineage: ECM 270 >> Sony TC110 >> MAC; Analog Sound Preservation: MAC >> Nakamichi CR7a => Korg MR-1000 >> DSF [1-bit 5.6448 MHz Stereo] >> Korg MR-1000 => Korg AudioGate >> WAV [24/96]. Taped By: Robert Castelli; Transfer By: Bob Menke; Mastering By: Derek McCabe & David Minches; Speed correction by Joe B. Jones. 
Source Information - Download Text | Download Zip
MOTB Release: 0159 24/96
Release Date: 2010-10-18
Band: Great American String Band
Date: 1974-06-13 (Thursday)
Venue: Keystone
Location: Berkeley, CA
Analog Audience Source: Master Cassettes (MAC)
Medium Stock Brands: Scotch C120
Analog Lineage: ECM 270 >> Sony TC110 >> MAC
Analog Sound Preservation: MAC >> Nakamichi CR7a => Korg MR-1000 >> DSF [1-bit 5.6448 MHz Stereo] >> Korg MR-1000 => Korg AudioGate >> WAV [24/96]
Taped By: Robert Castelli
Transfer By: Bob Menke
Mastering By: Derek McCabe & David Minches
Speed correction by Joe B. Jones

Set 1:
s1t01: Colored Aristocracy
s1t02: Cedar Hill
s1t03: I'll Be A Gambler If You Deal The Cards
s1t04: My Plastic Banana Is Not Stupid
s1t05: Moonlight Waltz
s1t06: Swing '42
s1t07: Methodist Preacher
s1t08: Limehouse Blues

Set 2:
s2t01: Tuning
s2t02: Bud's Bounce
s2t03: Dawg's Bull
s2t04: Banter
s2t05: Russian Lullaby  
s2t06: Virgin's Lament
s2t07: Swing '42  
s2t08: Drink Up and Go Home
s2t09: Dawg's Rag
s2t10: Sweet Georgia Brown

SHN TOOL:

    length     expanded size    cdr  WAVE problems  fmt   ratio  filename
    3:49.883     132412928 B   cxx   --   ---xx   flac  0.6296  jg1974-06-13.aud.motb.s1t01.flac
    5:35.558     193281320 B   cxx   --   ---xx   flac  0.6284  jg1974-06-13.aud.motb.s1t02.flac
    5:11.850     179625656 B   cxx   --   ---xx   flac  0.6262  jg1974-06-13.aud.motb.s1t03.flac
    3:22.570     116680262 B   cxx   --   ---xx   flac  0.6281  jg1974-06-13.aud.motb.s1t04.flac
    6:57.258     240340550 B   cxx   --   ---xx   flac  0.6513  jg1974-06-13.aud.motb.s1t05.flac
    6:48.131     235083500 B   cxx   --   ---xx   flac  0.6584  jg1974-06-13.aud.motb.s1t06.flac
    6:35.768     227962562 B   cxx   --   ---xx   flac  0.6620  jg1974-06-13.aud.motb.s1t07.flac
    3:12.173     110691650 B   cxx   --   ---xx   flac  0.6580  jg1974-06-13.aud.motb.s1t08.flac
    0:01.113        641378 B   cxx   --   ---xx   flac  0.1129  jg1974-06-13.aud.motb.s2t01.flac
    6:15.313     216180098 B   cxx   --   ---xx   flac  0.6359  jg1974-06-13.aud.motb.s2t02.flac
    2:33.985      88695668 B   cxx   --   ---xx   flac  0.6401  jg1974-06-13.aud.motb.s2t03.flac
    1:01.600      35481902 B   cxx   --   ---xx   flac  0.6270  jg1974-06-13.aud.motb.s2t04.flac
    9:09.754     316658558 B   cxx   --   ---xx   flac  0.6309  jg1974-06-13.aud.motb.s2t05.flac
    7:54.726     273442340 B   cxx   --   ---xx   flac  0.6347  jg1974-06-13.aud.motb.s2t06.flac
   12:19.885     426174080 B   cxx   --   ---xx   flac  0.6340  jg1974-06-13.aud.motb.s2t07.flac
    3:13.582     111503558 B   cxx   --   ---xx   flac  0.6298  jg1974-06-13.aud.motb.s2t08.flac
    8:48.429     304375322 B   cxx   --   ---xx   flac  0.6281  jg1974-06-13.aud.motb.s2t09.flac
    4:59.595     172567034 B   cxx   --   ---xx   flac  0.6327  jg1974-06-13.aud.motb.s2t10.flac
   97:51.176    3381798366 B                            0.6376  (18 files)
Show Checksums
ffp
jg1974-06-13.gasb.aud-castelli.menke.motb.01xx.flac249\jg1974-06-13.aud.motb.s1t01.flac:82d7d81b689eb15679041f8a0b3ad63d
jg1974-06-13.gasb.aud-castelli.menke.motb.01xx.flac249\jg1974-06-13.aud.motb.s1t02.flac:53aa298688f2dea972f395c2dd816abb
jg1974-06-13.gasb.aud-castelli.menke.motb.01xx.flac249\jg1974-06-13.aud.motb.s1t03.flac:47419886f1ac419b6a7210993b2c532e
jg1974-06-13.gasb.aud-castelli.menke.motb.01xx.flac249\jg1974-06-13.aud.motb.s1t04.flac:0050e2a994d31886eca01edeebbb142a
jg1974-06-13.gasb.aud-castelli.menke.motb.01xx.flac249\jg1974-06-13.aud.motb.s1t05.flac:34164613173ad54e8b9fd670f23f5fa3
jg1974-06-13.gasb.aud-castelli.menke.motb.01xx.flac249\jg1974-06-13.aud.motb.s1t06.flac:7d09ffa22998e6b0078b73624aa4eacc
jg1974-06-13.gasb.aud-castelli.menke.motb.01xx.flac249\jg1974-06-13.aud.motb.s1t07.flac:8862de683a5c3a7bdfdbbabc4994e157
jg1974-06-13.gasb.aud-castelli.menke.motb.01xx.flac249\jg1974-06-13.aud.motb.s1t08.flac:a6abe0ddbfd483598778b74fac36108d
jg1974-06-13.gasb.aud-castelli.menke.motb.01xx.flac249\jg1974-06-13.aud.motb.s2t01.flac:efceef5d23e5ccd4d71e0333cc5fb896
jg1974-06-13.gasb.aud-castelli.menke.motb.01xx.flac249\jg1974-06-13.aud.motb.s2t02.flac:8b58f681c18dec8137559176b65cb05c
jg1974-06-13.gasb.aud-castelli.menke.motb.01xx.flac249\jg1974-06-13.aud.motb.s2t03.flac:110ab5b61b6daba32f090e479f67fb08
jg1974-06-13.gasb.aud-castelli.menke.motb.01xx.flac249\jg1974-06-13.aud.motb.s2t04.flac:10f062f020964caceb282fc6309bf3e5
jg1974-06-13.gasb.aud-castelli.menke.motb.01xx.flac249\jg1974-06-13.aud.motb.s2t05.flac:afa1d2cdc286e1b7e56ab66d9659ae89
jg1974-06-13.gasb.aud-castelli.menke.motb.01xx.flac249\jg1974-06-13.aud.motb.s2t06.flac:6a0723273fbd4916db0892b61c63c752
jg1974-06-13.gasb.aud-castelli.menke.motb.01xx.flac249\jg1974-06-13.aud.motb.s2t07.flac:a3469355b184ba380e90fd2db49c62f3
jg1974-06-13.gasb.aud-castelli.menke.motb.01xx.flac249\jg1974-06-13.aud.motb.s2t08.flac:6830485be096450359212a6e6dfa0078
jg1974-06-13.gasb.aud-castelli.menke.motb.01xx.flac249\jg1974-06-13.aud.motb.s2t09.flac:0e3ade80f2a25a8f95c689adfe671511
jg1974-06-13.gasb.aud-castelli.menke.motb.01xx.flac249\jg1974-06-13.aud.motb.s2t10.flac:f94807d19057c7c6caea55032d28dad6
md5
84931e7e8d5980c4367cd6074d8d095a *jg1974-06-13.gasb.aud-castelli.menke.motb.01xx.flac249\jg1974-06-13.aud.motb.s1t01.flac
bd5b3924cf154427fc18cebd16f76d86 *jg1974-06-13.gasb.aud-castelli.menke.motb.01xx.flac249\jg1974-06-13.aud.motb.s1t02.flac
cc158a5e4cc75cd582cff037d2bbb6e9 *jg1974-06-13.gasb.aud-castelli.menke.motb.01xx.flac249\jg1974-06-13.aud.motb.s1t03.flac
cbe00c94766ad5c5a679081d89537d56 *jg1974-06-13.gasb.aud-castelli.menke.motb.01xx.flac249\jg1974-06-13.aud.motb.s1t04.flac
520f17001583a3cdacad03fa68649ca2 *jg1974-06-13.gasb.aud-castelli.menke.motb.01xx.flac249\jg1974-06-13.aud.motb.s1t05.flac
4fd48d2ed70c6cbdbd67fb690073e1da *jg1974-06-13.gasb.aud-castelli.menke.motb.01xx.flac249\jg1974-06-13.aud.motb.s1t06.flac
503bd7b4f4982e383323a8855dfde407 *jg1974-06-13.gasb.aud-castelli.menke.motb.01xx.flac249\jg1974-06-13.aud.motb.s1t07.flac
cdfa3053214cd004c4fb2a8edde561f8 *jg1974-06-13.gasb.aud-castelli.menke.motb.01xx.flac249\jg1974-06-13.aud.motb.s1t08.flac
8f359218c34abb71dda6e5f902582360 *jg1974-06-13.gasb.aud-castelli.menke.motb.01xx.flac249\jg1974-06-13.aud.motb.s2t01.flac
c6d7277fb747e7e29695da636d7aa214 *jg1974-06-13.gasb.aud-castelli.menke.motb.01xx.flac249\jg1974-06-13.aud.motb.s2t02.flac
575cb8d6d8c9eeb6eaa23f52fedaa35d *jg1974-06-13.gasb.aud-castelli.menke.motb.01xx.flac249\jg1974-06-13.aud.motb.s2t03.flac
fcc51157689d028e559fc31ccf33816c *jg1974-06-13.gasb.aud-castelli.menke.motb.01xx.flac249\jg1974-06-13.aud.motb.s2t04.flac
3ce471f2c009490431bbdc2744bd9fca *jg1974-06-13.gasb.aud-castelli.menke.motb.01xx.flac249\jg1974-06-13.aud.motb.s2t05.flac
52696f3e9df59cadc04c03864e263953 *jg1974-06-13.gasb.aud-castelli.menke.motb.01xx.flac249\jg1974-06-13.aud.motb.s2t06.flac
102b170649de0833a4a25d9e624dd46d *jg1974-06-13.gasb.aud-castelli.menke.motb.01xx.flac249\jg1974-06-13.aud.motb.s2t07.flac
9523372c4e2ce85e7ce71ca083247c94 *jg1974-06-13.gasb.aud-castelli.menke.motb.01xx.flac249\jg1974-06-13.aud.motb.s2t08.flac
d666b7f103f959bf9fb42fcc2b339a84 *jg1974-06-13.gasb.aud-castelli.menke.motb.01xx.flac249\jg1974-06-13.aud.motb.s2t09.flac
49fdfb338c4813af0bba018339e8d2cd *jg1974-06-13.gasb.aud-castelli.menke.motb.01xx.flac249\jg1974-06-13.aud.motb.s2t10.flac

Comments
Add Comment
Date User Comment