Browse Collections Artists Sources   Search Dates

Add Show    List Management    Help


Garcia 11/02/74
Keystone, Berkeley, CA
Comments Add Comment    Source Collectors    Add to Collection    Add to Want List    History
Source # 111191 Other Sources
Entered by
Checksums ffp , flac-md5
Disc Counts 0 / 0
Media Size
Uncompressed: 4.78 GB (5131953666 bytes)
Date Circulated
Date Added

12/14/2010
Source Summary MOTB Release: 0158 24/96 Analog Audience Source: FOB Master Cassettes (MAC) Medium Stock Brands: MAC = 2 x Maxell UD C-90 Analog Lineage: 1 x Sony ECM 270 >> Sony TC 110 >> MAC Analog Sound Preservation: MAC >> Nakamichi CR7a >> Korg MR-1000 >> DSF [1-bit 5.6448 MHz Stereo] >> Korg MR-1000 >> Korg AudioGate >> WAV [24/96] Taped By: Robert Castelli, Transfer By: Bob Menke, Mastering By: Derek McCabe 
Source Information - Download Text | Download Zip
MOTB Release: 0158 24/96
Release Date: 2010-11-11
Band: Jerry Garcia
Date: 1974-11-02 (Wednesday)
Venue: Keystone
Location: Berkley, CA
Analog Audience Source: FOB Master Cassettes (MAC)
Medium Stock Brands: MAC = 2 x Maxell UD C-90
Analog Lineage: 1 x Sony ECM 270 >> Sony TC 110 >> MAC
Analog Sound Preservation: MAC >> Nakamichi CR7a >> Korg MR-1000 >> DSF [1-bit 5.6448 MHz Stereo] >> Korg MR-1000 >> Korg AudioGate >> WAV [24/96]
Taped By: Robert Castelli
Transfer By: Bob Menke
Mastering By: Derek McCabe


Set 1:
Disc One
d1t01: Neighbor, Neighbor
d1t02: Valdez In The Country
d1t03: Freedom Jazz Dance
d1t04: Tough Mama
d1t05: You Can Leave Your Hat On
d1t06: That's The Touch I Like


Set 2:
Disc Two
d2t01: Wondering Why
d2t02: People Make The World Go 'Round
d2t03: Mystery Train
d2t04: It's Too Late
d2t05: Favela
d2t06: Boogie On Reggae Woman


Notes: There are many areas were the mics get overloaded and the sound gets distorted.

SHN TOOL:

    length     expanded size    cdr  WAVE problems  fmt   ratio  filename
    10:34.314     365365100 B   cxx   --   ---xx   flac  0.5795  jg1974-11-02.gs.aud.castelli.motb.s1t01.flac
    11:03.312     382067804 B   cxx   --   ---xx   flac  0.5754  jg1974-11-02.gs.aud.castelli.motb.s1t02.flac
    10:59.303     379758848 B   cxx   --   ---xx   flac  0.5772  jg1974-11-02.gs.aud.castelli.motb.s1t03.flac
     9:34.835     331104752 B   cxx   --   ---xx   flac  0.5794  jg1974-11-02.gs.aud.castelli.motb.s1t04.flac
    12:07.193     418863446 B   cxx   --   ---xx   flac  0.5656  jg1974-11-02.gs.aud.castelli.motb.s1t05.flac
     9:07.742     315499244 B   cxx   --   ---xx   flac  0.5776  jg1974-11-02.gs.aud.castelli.motb.s1t06.flac
    20:52.750     721584314 B   cxx   --   ---xx   flac  0.5603  jg1974-11-02.gs.aud.castelli.motb.s2t01.flac
     3:49.475     132177836 B   cxx   --   ---xx   flac  0.5505  jg1974-11-02.gs.aud.castelli.motb.s2t02.flac
    13:50.564     478404932 B   cxx   --   ---xx   flac  0.5815  jg1974-11-02.gs.aud.castelli.motb.s2t03.flac
    12:13.295     422377874 B   cxx   --   ---xx   flac  0.5598  jg1974-11-02.gs.aud.castelli.motb.s2t04.flac
    19:24.989     671033822 B   cxx   --   ---xx   flac  0.5611  jg1974-11-02.gs.aud.castelli.motb.s2t05.flac
    14:51.867     513715694 B   cxx   --   ---xx   flac  0.5634  jg1974-11-02.gs.aud.castelli.motb.s2t06.flac
   148:29.641    5131953666 B                            0.5689  (12 files)





Show Checksums
ffp
jg1974-11-02.gs.aud.castelli.motb.s1t01.flac:32761b360df10306fb0bd33c2ed8f98c
jg1974-11-02.gs.aud.castelli.motb.s1t02.flac:3e19478ce5e455141bf220ebabd3c237
jg1974-11-02.gs.aud.castelli.motb.s1t03.flac:ae02a1772babe407f0d6584cb5878750
jg1974-11-02.gs.aud.castelli.motb.s1t04.flac:2730d7585cb34ad93f854da11b3e3218
jg1974-11-02.gs.aud.castelli.motb.s1t05.flac:7815e1567dede61c185fed587d5d3ad4
jg1974-11-02.gs.aud.castelli.motb.s1t06.flac:b6197ee1aa3fd1ef0e1f812bf434365d
jg1974-11-02.gs.aud.castelli.motb.s2t01.flac:985fa5ed702ec2454a8716ed9ca7252e
jg1974-11-02.gs.aud.castelli.motb.s2t02.flac:f9b3ab0ba0a954a5b0432fd62fb48afd
jg1974-11-02.gs.aud.castelli.motb.s2t03.flac:09b3e7e6bc1c3e12879e2607e3b0023b
jg1974-11-02.gs.aud.castelli.motb.s2t04.flac:3416026e4bc3c02e1efb0937f25c99c6
jg1974-11-02.gs.aud.castelli.motb.s2t05.flac:9eb17abfc803ccd3cc8ce68889d463ed
jg1974-11-02.gs.aud.castelli.motb.s2t06.flac:7fb8f635df4f3a92fca41d1c69921432
flac-md5
165187205c280d51d2a770466cf37b6e *jg1974-11-02.gs.aud.castelli.motb.s1t01.flac
697505deed90270a032148ffdd3f480a *jg1974-11-02.gs.aud.castelli.motb.s1t02.flac
0b24f5324c2c6ec585e4d778027d0003 *jg1974-11-02.gs.aud.castelli.motb.s1t03.flac
9d10bf70e375d320f1f990ae7d96e44a *jg1974-11-02.gs.aud.castelli.motb.s1t04.flac
4df421646cd40e90304f17dd44c9144b *jg1974-11-02.gs.aud.castelli.motb.s1t05.flac
ef5aa1a99ce857c1e9e4ca66315ce2f4 *jg1974-11-02.gs.aud.castelli.motb.s1t06.flac
7af360deeb9da79e30602fded4aba661 *jg1974-11-02.gs.aud.castelli.motb.s2t01.flac
42922eb58a16739a7a6ae51aa2e2ca7a *jg1974-11-02.gs.aud.castelli.motb.s2t02.flac
4c7e7bfced637a8aaa9bc91a5708ea93 *jg1974-11-02.gs.aud.castelli.motb.s2t03.flac
7711e8d5944e5e287d2948a8e70adacb *jg1974-11-02.gs.aud.castelli.motb.s2t04.flac
9844180f511fcfdd7c70f3d24c771e84 *jg1974-11-02.gs.aud.castelli.motb.s2t05.flac
3d770f4f0f538a494f6407c4fa7e0fbe *jg1974-11-02.gs.aud.castelli.motb.s2t06.flac

Comments
Add Comment
Other Sources (comments)
flac1644; MOTB 0158; Robert... (0)
Date User Comment