Browse Collections Artists Sources   Search Dates

Add Show    List Management    Help


Grateful Dead 08/18/89
The Greek Theatre - University of California, Berkeley, CA
Comments Add Comment    Source Collectors    Add to Collection    Add to Want List    History
Source # 111997 Other Sources
Entered by Matt Vernon
Checksums orig-ffp , ffp , flac-md5
Disc Counts 2 / 3
Media Size
Date Circulated
Date Added
02/20/2011
02/19/2011
Source Summary flac16; RECORDED BY: Greg Holtz; SOURCE: Healy's MTX -> Sony Stereo receiver (10 feet from In House FM Broadcast) -> Sony WM-D6C; TRANSFER: (By: JAZ) Master Cassettes (Maxell MX 90 IEC TYPE IV METAL) Tascam 112, Metal & Dolby B engaged -> Korg MR-1, 1bit 2.8MHz -> USB -> Korg Audio Gate Software 24bit 96KHz -> Wave Lab 6.0 w/UAD -> R8brain for 16bit 44.1KHz sample rate conversion -> Traders Little Helper flac8 -> Tag With Tag & Rename 
  Archive
Source Information - Download Text | Download Zip
Grateful Dead
Greek Theatre
Berkeley, CA
August 18th 1989

RECORDED BY: Greg Holtz

SOURCE: Healy's MTX -> Sony Stereo receiver (10 feet from In House FM Broadcast) -> Sony WM-D6C

TRANSFER: (By: JAZ) Master Cassettes (Maxell MX 90 IEC TYPE IV METAL) Tascam 112, Metal & Dolby B engaged -> Korg MR-1, 1bit 2.8MHz -> USB -> Korg Audio Gate Software 24bit 96KHz -> Wave Lab 6.0 w/UAD -> R8brain for 16bit 44.1KHz sample rate conversion -> Traders Little Helper flac8 -> Tag With Tag & Rename

Set I
1.Cold Rain & Snow
2.Minglewood Blues
3.Row Jimmy
4.When I Paint My Masterpiece
5.Built To Last
6.Victim Or The Crime
7.Bird Song
8.Promised Land

Set II
9.Iko Iko
10.Looks Like Rain
11.Terrapin Station->
12.Drums/Spsace->
13.Crazy Fingers->
14.I Need A Miracle->
15.Stella Blue->
16.Throwing Stones->
17.Turn On Your Love Light

Encore:
18.Black Muddy River
19.We Bid You Good Night

SBE CHECK:
    length     expanded size    cdr  WAVE problems  fmt   ratio  filename
     9:09.58       96980060 B   ---   --   ---xx   flac  0.4826  GD1989-08-18trk(01).flac
    10:13.70      108297884 B   ---   --   ---xx   flac  0.4898  GD1989-08-18trk(02).flac
    10:20.25      109426844 B   ---   --   ---xx   flac  0.5090  GD1989-08-18trk(03).flac
     5:29.67       58193228 B   ---   --   ---xx   flac  0.5295  GD1989-08-18trk(04).flac
     5:58.53       63275900 B   ---   --   ---xx   flac  0.5197  GD1989-08-18trk(05).flac
     6:53.09       72874412 B   ---   --   ---xx   flac  0.5524  GD1989-08-18trk(06).flac
    11:27.61      121330316 B   ---   --   ---xx   flac  0.5709  GD1989-08-18trk(07).flac
     4:33.70       48321884 B   ---   --   ---xx   flac  0.5664  GD1989-08-18trk(08).flac
     6:54.21       73079036 B   ---   --   ---xx   flac  0.5556  GD1989-08-18trk(09).flac
     9:21.35       99042764 B   ---   --   ---xx   flac  0.5382  GD1989-08-18trk(10).flac
    12:52.67      136338428 B   ---   --   ---xx   flac  0.5496  GD1989-08-18trk(11).flac
    21:02.53      222741500 B   ---   --   ---xx   flac  0.4863  GD1989-08-18trk(12).flac
     9:00.47       95366588 B   ---   --   ---xx   flac  0.5578  GD1989-08-18trk(13).flac
     4:28.06       47289356 B   ---   --   ---xx   flac  0.5847  GD1989-08-18trk(14).flac
     8:50.58       93628460 B   ---   --   ---xx   flac  0.5436  GD1989-08-18trk(15).flac
     8:34.09       90690812 B   ---   --   ---xx   flac  0.5703  GD1989-08-18trk(16).flac
     6:43.21       71138636 B   ---   --   ---xx   flac  0.5663  GD1989-08-18trk(17).flac
     7:51.42       83183228 B   ---   --   ---xx   flac  0.5423  GD1989-08-18trk(18).flac
     2:38.56       28002956 B   ---   --   ---xx   flac  0.5311  GD1989-08-18trk(19).flac
   162:26.03     1719202292 B                            0.5334  (19 files)
Show Checksums
orig-ffp
GD1989-08-18trk(01).flac:c93859287dcf9fce309309c165807596
GD1989-08-18trk(02).flac:0d4021f0ff5cf2c9434dab27799453c4
GD1989-08-18trk(03).flac:7d5a5e76870101fe48a991002e3c29d7
GD1989-08-18trk(04).flac:21714a114e788260ee3fa72114f12680
GD1989-08-18trk(05).flac:eea348d37991cbd5c4d785179cac9ed6
GD1989-08-18trk(06).flac:35b308e64b030c1beb323a24fbeb3fab
GD1989-08-18trk(07).flac:503e69e71691fcd03b56c5ce037fd6bd
GD1989-08-18trk(08).flac:24686b28012c3ae13d9e31df27ab0cbb
GD1989-08-18trk(09).flac:c4d8db916d2a43179d2d1492d1a6d0ca
GD1989-08-18trk(10).flac:6795af85a3a57c7fc1407c2425129a32
GD1989-08-18trk(11).flac:13db071abd1403dd931a67941a293190
GD1989-08-18trk(12).flac:090588c7724b133785131be936565497
GD1989-08-18trk(13).flac:908568115b8279df7ebe56db7d1ec961
GD1989-08-18trk(14).flac:8f1e20902029db9937b61ba8877175b4
GD1989-08-18trk(15).flac:ff6b05e6c72ab99a251230d1e3a67304
GD1989-08-18trk(16).flac:9574f49e1ec460c6f4d9211538064691
GD1989-08-18trk(17).flac:0e95be6848c7e16ed44e5c0c5d436919
GD1989-08-18trk(18).flac:d5edcf5b11609cb8b776494ed66873f9
GD1989-08-18trk(19).flac:10dfc1e39326844dfa73fbe720ef86db
ffp
GD1989-08-18trk01.flac:c93859287dcf9fce309309c165807596
GD1989-08-18trk02.flac:0d4021f0ff5cf2c9434dab27799453c4
GD1989-08-18trk03.flac:7d5a5e76870101fe48a991002e3c29d7
GD1989-08-18trk04.flac:21714a114e788260ee3fa72114f12680
GD1989-08-18trk05.flac:eea348d37991cbd5c4d785179cac9ed6
GD1989-08-18trk06.flac:35b308e64b030c1beb323a24fbeb3fab
GD1989-08-18trk07.flac:503e69e71691fcd03b56c5ce037fd6bd
GD1989-08-18trk08.flac:24686b28012c3ae13d9e31df27ab0cbb
GD1989-08-18trk09.flac:c4d8db916d2a43179d2d1492d1a6d0ca
GD1989-08-18trk10.flac:6795af85a3a57c7fc1407c2425129a32
GD1989-08-18trk11.flac:13db071abd1403dd931a67941a293190
GD1989-08-18trk12.flac:090588c7724b133785131be936565497
GD1989-08-18trk13.flac:908568115b8279df7ebe56db7d1ec961
GD1989-08-18trk14.flac:8f1e20902029db9937b61ba8877175b4
GD1989-08-18trk15.flac:ff6b05e6c72ab99a251230d1e3a67304
GD1989-08-18trk16.flac:9574f49e1ec460c6f4d9211538064691
GD1989-08-18trk17.flac:0e95be6848c7e16ed44e5c0c5d436919
GD1989-08-18trk18.flac:d5edcf5b11609cb8b776494ed66873f9
GD1989-08-18trk19.flac:10dfc1e39326844dfa73fbe720ef86db
flac-md5
74f2b82f02a36b229e749254a2383153 *GD1989-08-18trk01.flac
455c293b88533f6a84e16a4b3a0984af *GD1989-08-18trk02.flac
d79dbfac653dc0a7d6d022d716d1dbe2 *GD1989-08-18trk03.flac
95c993aafcd92f980a4d253d96568e7c *GD1989-08-18trk04.flac
b5aff4937aa51fcc317ab0812073982b *GD1989-08-18trk05.flac
0dba31459f5ddd9a15fa127bfc53183e *GD1989-08-18trk06.flac
71b6c3a924163b3cb9175fcab17a5be2 *GD1989-08-18trk07.flac
88a4ed5ec0f9b31288d2250190b4459e *GD1989-08-18trk08.flac
59b2aeab49f97930b9ac59db90e89bec *GD1989-08-18trk09.flac
022969a87c8745707acba09e45c66ead *GD1989-08-18trk10.flac
86b3a786da810d306d477e189ed3e4fd *GD1989-08-18trk11.flac
7015e9949f7ea7ede56dc45fc0562a52 *GD1989-08-18trk12.flac
e5567a80f594dca27b54585a5a0b7d53 *GD1989-08-18trk13.flac
451b3aa136a8f4040fec6b4e06aac2fc *GD1989-08-18trk14.flac
e548fce12f3ea7debb0a738bfcc46e74 *GD1989-08-18trk15.flac
6905bf947825e6c8de81086201c6a5b2 *GD1989-08-18trk16.flac
fba75b7618755a1b3111cfbf71013cc9 *GD1989-08-18trk17.flac
25774a9f47c8163edd324e42b5a9ab5e *GD1989-08-18trk18.flac
3a933b08f659d627d8c5f2e6e415ccae *GD1989-08-18trk19.flac

Comments
Add Comment
Other Sources (comments)
Healy Matrix Digital SBD >... (4) Jay Ashley (Bertha)... (1) Seamless fix of (0) flac16; Recording... (0) flac16; AUD:... (0) flac16; LINEAGE: 2x... (0) flac16; Source: 2... (0) flac16; Source info:... (0) flac24 96khz Akg... (0) flac16 44.1khz ... (0) flac24; Set 2... (0) flac24; Set 2... (0) flac16; Recording... (0) flac16; Set 2... (0)
Date User Comment