Browse Collections Artists Sources   Search Dates

Add Show    List Management    Help


String Cheese Incident 07/06/01
Sandstone Amphitheatre, Bonner Springs, KS
Comments Add Comment    Source Collectors    Add to Collection    Add to Want List    History
Source # 115661 Other Sources
Entered by
Checksums sci2001-07-06.sbd.md5 , sci2001-07-06.sbd.ffp
Disc Counts 2 / 2
Media Size Compressed: 1.6 GB (1719381000 bytes)
Date Circulated
Date Added
09/15/2006
08/15/2011
Source Summary Source: SBD > Tascam DA-P1 > CD Master
CD Mastering: Tascam DA30 > HHB CDR800 Digital Clone from 48 khz DAT to CDR 44.1 khz (using shielded coax digicable)
Lineage: CD Master > EAC > Cool Edit Pro > CD Wave > Flac (level 6)
Transferred on 9/15/06 
Source Information - Download Text | Download Zip
String Cheese Incident
Friday, July 6, 2001
Sandstone Amphitheater, Bonner Springs
Kansas

Source: SBD > Tascam DA-P1 > CD Master
CD Mastering: Tascam DA30 > HHB CDR800 Digital Clone from 48 khz DAT to CDR 44.1 khz (using shielded coax digicable)
Lineage: CD Master > EAC > Cool Edit Pro > CD Wave > Flac (level 6)
Transferred on 9/15/06
Tagging: Flacs tagged with Foobar2000 Live Show Tagger

Set 1:
d1t01 - (01:46) Intro Set 1
d1t02 - (08:22) Close Your Eyes
d1t03 - (08:40) Cedar Laurels
d1t04 - (06:58) +Superstition
d1t05 - (01:27) chatter
d1t06 - (03:21) Panama Red
d1t07 - (20:12) On the Road-> Rainy Day Women Jam->
d1t08 - (07:45) Search

Set 2:
d2t01 - (01:33) Intro Set 2 / Group Hoot
d2t02 - (22:17) Best Feeling-> Dark Side Jam->
d2t03 - (17:32) Rollover->
d2t04 - (06:02) Take a Little Time
d2t05 - (13:32) Way Back Home
d3t01 - (09:43) Sing a New Song->
d3t02 - (19:04) Sweet Melinda->  
d3t03 - (01:37) Rollover
d3t04 - (04:55) encore break chatter  
Encore:  
d3t05 - (07:32) Lonesome Road Blues

d1: (58:38)
d2: (61:00)
d3: (42:54)

Guest:  
+ with John Bell (Widespread Panic) - vocals!

Lineup:
- Michael Kang - acoustic/electric mandolin, electric guitar, violin, vocals
- Michael Travis - drums, percussion, vocals
- Bill Nershi - acoustic guitar, lap steel guitar, electric guitar, vocals
- Kyle Hollingsworth - keyboards, accordion, vocals
- Keith Moseley - bass, vocals

Notes:  
-- Co-headline bill with Widespread Panic.  WSP played first.
-- "Rainy Day Women #12 & 35" (Bob Dylan) is teased between On the Road and Search.
-- "Breathe" (Pink Floyd) is teased between Best Feeling and Rollover.

Editing Notes:
-Fades added at beginning and end of sets with Cool Edit Pro.
-Tracking done in CDWave.
-Transition between d2 and d3 is seamless.
-EAC was performed with offsets corrected in secure mode.
-All tracks were 100% error free when extracted with EAC.

**************************************************************
Shntool Output
    length     expanded size    cdr  WAVE problems  fmt   ratio  filename
     1:46.55       18827804 B   ---   --   ---xx   flac  0.3956  sci2001-07-06d1t01_Intro_Set_1.flac
     8:22.66       88708076 B   ---   --   ---xx   flac  0.5702  sci2001-07-06d1t02_Close_Your_Eyes.flac
     8:40.69       91890332 B   ---   --   ---xx   flac  0.5664  sci2001-07-06d1t03_Cedar_Laurels.flac
     6:58.05       73747004 B   ---   --   ---xx   flac  0.5941  sci2001-07-06d1t04_Superstition.flac
     1:27.43       15447980 B   ---   --   ---xx   flac  0.4425  sci2001-07-06d1t05_chatter.flac
     3:21.52       35578748 B   ---   --   ---xx   flac  0.5518  sci2001-07-06d1t06_Panama_Red.flac
    20:12.53      213921500 B   ---   --   ---xx   flac  0.5798  sci2001-07-06d1t07_On_the_Road.flac
     7:45.68       82185980 B   ---   --   ---xx   flac  0.5623  sci2001-07-06d1t08_Search.flac
     1:33.66       16560476 B   ---   --   ---xx   flac  0.4916  sci2001-07-06d2t01_Intro_Set_2.flac
    22:17.09      235868012 B   ---   --   ---xx   flac  0.5568  sci2001-07-06d2t02_Best_Feeling.flac
    17:32.31      185645756 B   ---   --   ---xx   flac  0.5930  sci2001-07-06d2t03_Rollover.flac
     6:02.50       63974444 B   ---   --   ---xx   flac  0.5467  sci2001-07-06d2t04_Take_a_Little_Time.flac
    13:32.23      143290940 B   ---   --   ---xx   flac  0.5383  sci2001-07-06d2t05_Way_Back_Home.flac
     9:43.11      102867116 B   ---   --   ---xx   flac  0.5566  sci2001-07-06d3t01_Sing_a_New_Song.flac
    19:04.04      201811052 B   ---   --   ---xx   flac  0.6013  sci2001-07-06d3t02_Sweet_Melinda.flac
     1:37.66       17266076 B   ---   --   ---xx   flac  0.6117  sci2001-07-06d3t03_Rollover.flac
     4:55.02       52042748 B   ---   --   ---xx   flac  0.4389  sci2001-07-06d3t04_encore_break.flac
     7:32.06       79746956 B   ---   --   ---xx   flac  0.5572  sci2001-07-06d3t05_Lonesome_Road_Blues.flac
   162:27.04     1719381000 B                            0.5634  (18 files)

**************************************************************
FLAC Fingerprint
sci2001-07-06d1t01_Intro_Set_1.flac:4ee782a58aac5967abdcffda14acbbe6
sci2001-07-06d1t02_Close_Your_Eyes.flac:8c1c474cb6ea3158a9cf9b878340d645
sci2001-07-06d1t03_Cedar_Laurels.flac:58b96ac6e2ebedd84e6b6bd8e6b823ad
sci2001-07-06d1t04_Superstition.flac:d7c0b5cb65389b85b6f8c06d4142312b
sci2001-07-06d1t05_chatter.flac:ac47a3de1fec0fc9bdd1b980e47d5fb2
sci2001-07-06d1t06_Panama_Red.flac:5ab37ebdb713b5a7a60090e4e818ccf8
sci2001-07-06d1t07_On_the_Road.flac:3208f13b7bcc4e1df2fb8a4c86145b23
sci2001-07-06d1t08_Search.flac:ae0af359f3a5b4239e9b982b423ebb54
sci2001-07-06d2t01_Intro_Set_2.flac:9758ae2b9d657a3a803095c914147b03
sci2001-07-06d2t02_Best_Feeling.flac:503a84392859da7f1856812a77fa2566
sci2001-07-06d2t03_Rollover.flac:d61cbaa3bf7e68c079659e3a144dd275
sci2001-07-06d2t04_Take_a_Little_Time.flac:6fb326246622fe2ad76147f89e779e77
sci2001-07-06d2t05_Way_Back_Home.flac:8c981185c343968dcd2b2b829605026a
sci2001-07-06d3t01_Sing_a_New_Song.flac:5451e723435cfa098af95ca11b7d6fc5
sci2001-07-06d3t02_Sweet_Melinda.flac:51106cfdd8e672b22fed646e3aa37f7b
sci2001-07-06d3t03_Rollover.flac:a1c18b40d291460d38291b80bcc5908c
sci2001-07-06d3t04_encore_break.flac:a46334263354d8cb244a758f744f9182
sci2001-07-06d3t05_Lonesome_Road_Blues.flac:f9722d45182b4aefc804942eafe0c190
Show Checksums
sci2001-07-06.sbd.md5
4879ff481a3dea6de80378ae2cc13464 *sci2001-07-06d1t01_Intro_Set_1.flac
f1b4b39a403b788a3864fa40813a816f *sci2001-07-06d1t02_Close_Your_Eyes.flac
aa71c5adac3c9ed0e693424fbc88682b *sci2001-07-06d1t03_Cedar_Laurels.flac
a82f66c47640c828abbd273c46f0d38f *sci2001-07-06d1t04_Superstition.flac
2f6eb60c614cc7a0aa0646af88a9254c *sci2001-07-06d1t05_chatter.flac
14df6fd8bdf0253a13aca4b8f943c060 *sci2001-07-06d1t06_Panama_Red.flac
cdd96f472c59ded748dd4e8c22759129 *sci2001-07-06d1t07_On_the_Road.flac
09ecc6553a7b7de79721d5b2b6fec861 *sci2001-07-06d1t08_Search.flac
ca07ff5c1620d67397dfab9fb5fa4bf3 *sci2001-07-06d2t01_Intro_Set_2.flac
ecfa934e0fb2f25257bf36770e7a3e5a *sci2001-07-06d2t02_Best_Feeling.flac
565f54b915b265f77bf4c13952c91b66 *sci2001-07-06d2t03_Rollover.flac
734adf511c07e33dc66dfe52431b9323 *sci2001-07-06d2t04_Take_a_Little_Time.flac
bdb35469f6726ae35bc5c39d595ca10f *sci2001-07-06d2t05_Way_Back_Home.flac
0e38976457517cc42493b5f510a441f1 *sci2001-07-06d3t01_Sing_a_New_Song.flac
b29104076a11412797bdc24f7c768093 *sci2001-07-06d3t02_Sweet_Melinda.flac
54637ed60418df45d6a316149f6c48c8 *sci2001-07-06d3t03_Rollover.flac
0cb821f0bbf954250904bc423bd80d9f *sci2001-07-06d3t04_encore_break.flac
8ec72abc2ec3d119d97545a8f41b4df0 *sci2001-07-06d3t05_Lonesome_Road_Blues.flac
sci2001-07-06.sbd.ffp
sci2001-07-06d1t01_Intro_Set_1.flac:4ee782a58aac5967abdcffda14acbbe6
sci2001-07-06d1t02_Close_Your_Eyes.flac:8c1c474cb6ea3158a9cf9b878340d645
sci2001-07-06d1t03_Cedar_Laurels.flac:58b96ac6e2ebedd84e6b6bd8e6b823ad
sci2001-07-06d1t04_Superstition.flac:d7c0b5cb65389b85b6f8c06d4142312b
sci2001-07-06d1t05_chatter.flac:ac47a3de1fec0fc9bdd1b980e47d5fb2
sci2001-07-06d1t06_Panama_Red.flac:5ab37ebdb713b5a7a60090e4e818ccf8
sci2001-07-06d1t07_On_the_Road.flac:3208f13b7bcc4e1df2fb8a4c86145b23
sci2001-07-06d1t08_Search.flac:ae0af359f3a5b4239e9b982b423ebb54
sci2001-07-06d2t01_Intro_Set_2.flac:9758ae2b9d657a3a803095c914147b03
sci2001-07-06d2t02_Best_Feeling.flac:503a84392859da7f1856812a77fa2566
sci2001-07-06d2t03_Rollover.flac:d61cbaa3bf7e68c079659e3a144dd275
sci2001-07-06d2t04_Take_a_Little_Time.flac:6fb326246622fe2ad76147f89e779e77
sci2001-07-06d2t05_Way_Back_Home.flac:8c981185c343968dcd2b2b829605026a
sci2001-07-06d3t01_Sing_a_New_Song.flac:5451e723435cfa098af95ca11b7d6fc5
sci2001-07-06d3t02_Sweet_Melinda.flac:51106cfdd8e672b22fed646e3aa37f7b
sci2001-07-06d3t03_Rollover.flac:a1c18b40d291460d38291b80bcc5908c
sci2001-07-06d3t04_encore_break.flac:a46334263354d8cb244a758f744f9182
sci2001-07-06d3t05_Lonesome_Road_Blues.flac:f9722d45182b4aefc804942eafe0c190

Comments
Add Comment
Other Sources (comments)
Neumann KM184s > Sound... (2) AKG 481's (19th row back,... (0) AKG 481 > V2 > DMIC-20 >... (0)
Date User Comment