Browse Collections Artists Sources   Search Dates

Add Show    List Management    Help


Derek Trucks Band 04/15/98
Frankie's Patio, Tampa, FL
Comments Add Comment    Source Collectors    Add to Collection    Add to Want List    History
Source # 119387 Other Sources
Entered by Steve Blanchard
Checksums ffp , md5
Disc Counts 0 / 0
Media Size Compressed: 1.31 GB (1405356116 bytes)
Date Circulated
Date Added
03/08/2012
03/08/2012
Source Summary Source: Audience recording > AKG 460's > Denon DTR-80P > dat master (16/48)
Lineage: Dat > HHB CDR830 BurnIt > cdr > xACT > Flac 16 > Wavelab 6 (with iZotope Ozone 5 Advanced) > CD Wave > TLH > Flac 16 
Source Information - Download Text | Download Zip
Derek Trucks Band
Frankie's Patio
Tampa, FL
04/15/1998

Source: Audience recording > AKG 460's > Denon DTR-80P > dat master (16/48)
            Taped by Ray De Costa
Lineage: Dat > HHB CDR830 BurnIt > cdr > xACT > Flac 16 >
             Wavelab 6 (with iZotope Ozone 5 Advanced) > CD Wave > TLH > Flac 16


01   //Preachin' Blues >
02   555 Lake
03   D Minor Blues
04   Bock To Bock
05   Ain't That Lovin' You?
06   ???
07   Travellin' South
08   Egg 15 >
09   Drums >
10   Egg 15


Notes:

- "Preachin' Blues" fades in, not too much is missing


Opened for Gov't Mule


Thanks to Ray for the original flacs

edited and mastered
SIRMick
March 2012


shntool output:

    length     expanded size    cdr  WAVE problems  fmt   ratio  filename
     4:39.30       49286204 B   ---   --   ---xx   flac  0.5758  gm1998-04-15t01.flac
     3:14.17       34261628 B   ---   --   ---xx   flac  0.6480  gm1998-04-15t02.flac
     5:09.22       54559388 B   ---   --   ---xx   flac  0.6254  gm1998-04-15t03.flac
     9:02.42       95707628 B   ---   --   ---xx   flac  0.5854  gm1998-04-15t04.flac
     8:17.36       87755516 B   ---   --   ---xx   flac  0.6156  gm1998-04-15t05.flac
     7:26.26       78735596 B   ---   --   ---xx   flac  0.6083  gm1998-04-15t06.flac
     7:30.00       79380044 B   ---   --   ---xx   flac  0.5824  gm1998-04-15t07.flac
     9:22.71       99303836 B   ---   --   ---xx   flac  0.5977  gm1998-04-15t08.flac
     8:56.11       94576316 B   ---   --   ---xx   flac  0.6420  gm1998-04-15t09.flac
    10:00.18      105882380 B   ---   --   ---xx   flac  0.5919  gm1998-04-15t10.flac
    10:28.42      110878028 B   ---   --   ---xx   flac  0.6129  gm1998-04-15t11.flac
     4:17.18       45377180 B   ---   --   ---xx   flac  0.6601  gm1998-04-15t12.flac
     4:39.52       49337948 B   ---   --   ---xx   flac  0.6378  gm1998-04-15t13.flac
     7:54.58       83750060 B   ---   --   ---xx   flac  0.6156  gm1998-04-15t14.flac
     4:28.20       47322284 B   ---   --   ---xx   flac  0.6214  gm1998-04-15t15.flac
     3:39.66       38786876 B   ---   --   ---xx   flac  0.5999  gm1998-04-15t16.flac
     3:46.72       40035788 B   ---   --   ---xx   flac  0.5901  gm1998-04-15t17.flac
     8:07.41       86003276 B   ---   --   ---xx   flac  0.6180  gm1998-04-15t18.flac
    11:45.23      124416140 B   ---   --   ---xx   flac  0.6187  gm1998-04-15t19.flac
   132:46.65     1405356116 B                            0.6112  (19 files)

flac fingerprints:

gm1998-04-15t01.flac:17f621aa29af1284e717d2c21f5239e2
gm1998-04-15t02.flac:2f6f29b33fac1dec5cdd45010243b628
gm1998-04-15t03.flac:5a579e83ccf15c8f04089e89681c9561
gm1998-04-15t04.flac:15c3e8921fa50fca5d595ffe2ea08e8c
gm1998-04-15t05.flac:7d07693de78d9871be45efe86fb8f4a6
gm1998-04-15t06.flac:c242905dd0f85dfe4838730e39d896c8
gm1998-04-15t07.flac:14443dd85d8d1826c64aadc52a42859c
gm1998-04-15t08.flac:a4cfb324df313cbebf17af4f63618f27
gm1998-04-15t09.flac:f2bd91111b1be3ec33ba530c1722ff83
gm1998-04-15t10.flac:fbb34c02c70d6fa2b4c0150cb5c70951
gm1998-04-15t11.flac:9a8df8c1c7bcecfb82da6dd13a59666f
gm1998-04-15t12.flac:61a8e1bc8d38395f2d93d5d76f6dda17
gm1998-04-15t13.flac:d20d46f97224f0b5320fd4eb30577539
gm1998-04-15t14.flac:f8eb3e29e4d07f0bb3da00024e351362
gm1998-04-15t15.flac:b739de9748ae5d65ab61f9b091c9ccd8
gm1998-04-15t16.flac:a1c49d082a614399798733b23a0b069b
gm1998-04-15t17.flac:385668a46e6640301d56629b8b6e4785
gm1998-04-15t18.flac:53dc61f8045cae4a763188d5fa6ba7a7
gm1998-04-15t19.flac:4e7071fe0988989472dc7c1f00bb4d87
Show Checksums
ffp
dtb1998-04-15t01.flac:4e680f83977d482fa01ca649691af9bb
dtb1998-04-15t02.flac:b0636028739a1ece6c97306702ce695d
dtb1998-04-15t03.flac:5f24e494d54161fa493f07e10aeecbbf
dtb1998-04-15t04.flac:de3bafc95b667c84b6d95bf8d189d5b8
dtb1998-04-15t05.flac:939898dc0d3eee952d408e88a34a0ebb
dtb1998-04-15t06.flac:f7ca58ca5fbe5514fdf9b4422e38f841
dtb1998-04-15t07.flac:af1cf79cbdb601e58b1203924dc3f750
dtb1998-04-15t08.flac:d084d953f8610d8e708be82735a73574
dtb1998-04-15t09.flac:ceb560fda6675b45e8cbecaa8b95f159
dtb1998-04-15t10.flac:3cce7b43ac70372d9785b8140554f92b
md5
e0e75fea77640bdbe1c7f25c9bed4854 *dtb1998-04-15t01.flac
66ff6757eb3987ecff9d3fab17105d6b *dtb1998-04-15t02.flac
85199c37e9bb2887ee09ea682625928e *dtb1998-04-15t03.flac
bb8cac3cc5a24db15b60e54468fe158d *dtb1998-04-15t04.flac
bb33546f0ccdbd744456e5d9b4605353 *dtb1998-04-15t05.flac
696ffbb8daf6dbe65f7b48b742d72bd9 *dtb1998-04-15t06.flac
49256c5200a20c2279d7f2a4b6e540ee *dtb1998-04-15t07.flac
e2a8d8cde1f8f0196ecd55898e8abac0 *dtb1998-04-15t08.flac
643bca52e71a325cda3da9505efbb769 *dtb1998-04-15t09.flac
9fbc27fdcdf1a957086ffead974f6f12 *dtb1998-04-15t10.flac

Comments
Add Comment
Date User Comment