Browse Collections Artists Sources   Search Dates

Add Show    List Management    Help


Garcia 11/13/74
Paul's Mall, Boston, MA
Comments Add Comment    Source Collectors    Add to Collection    Add to Want List    History
Source # 121034 Other Sources
Entered by Joe Jupille
Checksums jgms1974-11-13-late.md5 , jgms1974-11-13-late.ffp
Disc Counts 0 / 0
Media Size Compressed: 487.07 MB (510725717 bytes)
Uncompressed: 873.33 MB (915756256 bytes)
Date Circulated
Date Added
07/03/2012
07/03/2012
Source Summary JGMS; Late show; Unknown AUD cassette, kindly supplied by Seaweed1010; Transfer: XLIIS-100 > Nakamichi DR-2 > Edirol FA-66 > Wavelab 2448 > R8Brain > CD-Wave > TLH > FLAC 1644 tagged, Andrew F. July 2012 
Source Information - Download Text | Download Zip
GARCIA & SAUNDERS
Paul's Mall
Boston MA
11-13-1974
Late Show

d1t01 The Harder They Come
d1t02 Favela//
d1t03 Just Kissed My Baby
d2t01 Someday Baby
d2t02 Wondering Why >
d2t03 People Make the World Go Round
d2t04 Neighbor Neighbor
d2t05 The Night They Drove Old Dixie Down//

Source: Unknown AUD cassette, kindly supplied by Seaweed1010.

Transfer: XLIIS-100 > Nakamichi DR-2 > Edirol FA-66 > Wavelab 2448 >
R8Brain > CD-Wave > TLH > FLAC 1644 tagged, Andrew F. July 2012

As noted on the JerrySite, this is probably the entire late show of
Nov 13th. The tape was labeled 4th-gen, but sounds very listenable
nonetheless. Favela and Dixie both cut out on the final notes, not
much missing in either case. Thanks again to Seaweed for this tape!

About the Paul's Mall dates... Currently we have as follows:
Nov 12th Early & Late Shows: nothing.
Nov 13th Early Show: Jerrysite and ID-10128 match.
Nov 13th Late Show: This tape.
Nov 14th Early Show: Jerrysite and ID-16461 match.
Nov 14th Late Show: Same songs listed, but out of order on ID-6383.

c72c21a9fd0f3a70c3482b8c985173a5 *jgms1974-11-13-late-d1t01.flac
bb6f3414ada75cea883c1cb23e454842 *jgms1974-11-13-late-d1t02.flac
3dc7e0420bf33fb44bd2137497bda601 *jgms1974-11-13-late-d1t03.flac
131bcc7e76912586516761f6c1766cb1 *jgms1974-11-13-late-d2t01.flac
b174dda91103a8acfcafda03a8f4b367 *jgms1974-11-13-late-d2t02.flac
e2427e40669d152fe3f82a798e99de94 *jgms1974-11-13-late-d2t03.flac
5585ea6518867d79651e62673a029a39 *jgms1974-11-13-late-d2t04.flac
5426c71fdea9edea0caa3ad2c4b795f2 *jgms1974-11-13-late-d2t05.flac

jgms1974-11-13-late-d1t01.flac:3197e1403ad848e25d988d5d5e0916f6
jgms1974-11-13-late-d1t02.flac:11b14536fe2fe5f3db170a004bb7e1b1
jgms1974-11-13-late-d1t03.flac:3cc1c0e0f8be399fe7fe2ad93bdfdd2d
jgms1974-11-13-late-d2t01.flac:6ed1a911c96a62db55b2c42b992d4ead
jgms1974-11-13-late-d2t02.flac:64fa4b4b80aab36767c48a607aebc67f
jgms1974-11-13-late-d2t03.flac:8b76816d883f8dcf33d98626bcf541ec
jgms1974-11-13-late-d2t04.flac:fd8245f732ef195d859521bfa966f24b
jgms1974-11-13-late-d2t05.flac:285519c0b2a3f73f1442ccbd8b36e79b

    length     expanded size    cdr  WAVE problems  fmt   ratio  filename
    15:16.15      161617724 B   ---   --   ---xx   flac  0.5714  jgms1974-11-13-late-d1t01.flac
    15:22.73      162812540 B   ---   --   ---xx   flac  0.5805  jgms1974-11-13-late-d1t02.flac
     9:19.15       98642924 B   ---   --   ---xx   flac  0.5476  jgms1974-11-13-late-d1t03.flac
    10:46.59      114093212 B   ---   --   ---xx   flac  0.5591  jgms1974-11-13-late-d2t01.flac
    17:34.17      185965628 B   ---   --   ---xx   flac  0.5343  jgms1974-11-13-late-d2t02.flac
     3:38.32       38530508 B   ---   --   ---xx   flac  0.5223  jgms1974-11-13-late-d2t03.flac
     8:24.51       89025596 B   ---   --   ---xx   flac  0.5755  jgms1974-11-13-late-d2t04.flac
     6:08.65       65068124 B   ---   --   ---xx   flac  0.5431  jgms1974-11-13-late-d2t05.flac
    86:31.27      915756256 B                            0.5577  (8 files)

No errors occured.


Show Checksums
jgms1974-11-13-late.md5
c72c21a9fd0f3a70c3482b8c985173a5 *jgms1974-11-13-late-d1t01.flac
bb6f3414ada75cea883c1cb23e454842 *jgms1974-11-13-late-d1t02.flac
3dc7e0420bf33fb44bd2137497bda601 *jgms1974-11-13-late-d1t03.flac
131bcc7e76912586516761f6c1766cb1 *jgms1974-11-13-late-d2t01.flac
b174dda91103a8acfcafda03a8f4b367 *jgms1974-11-13-late-d2t02.flac
e2427e40669d152fe3f82a798e99de94 *jgms1974-11-13-late-d2t03.flac
5585ea6518867d79651e62673a029a39 *jgms1974-11-13-late-d2t04.flac
5426c71fdea9edea0caa3ad2c4b795f2 *jgms1974-11-13-late-d2t05.flac
jgms1974-11-13-late.ffp
jgms1974-11-13-late-d1t01.flac:3197e1403ad848e25d988d5d5e0916f6
jgms1974-11-13-late-d1t02.flac:11b14536fe2fe5f3db170a004bb7e1b1
jgms1974-11-13-late-d1t03.flac:3cc1c0e0f8be399fe7fe2ad93bdfdd2d
jgms1974-11-13-late-d2t01.flac:6ed1a911c96a62db55b2c42b992d4ead
jgms1974-11-13-late-d2t02.flac:64fa4b4b80aab36767c48a607aebc67f
jgms1974-11-13-late-d2t03.flac:8b76816d883f8dcf33d98626bcf541ec
jgms1974-11-13-late-d2t04.flac:fd8245f732ef195d859521bfa966f24b
jgms1974-11-13-late-d2t05.flac:285519c0b2a3f73f1442ccbd8b36e79b

Comments
Add Comment
Other Sources (comments)
Garcia & Saunders: Early... (0)
Date User Comment