Browse Collections Artists Sources   Search Dates

Add Show    List Management    Help


Grateful Dead 04/16/89
The Mecca, Milwaukee, WI
Comments Add Comment    Source Collectors    Add to Collection    Add to Want List    History
Source # 122041 Other Sources
Entered by Matt Vernon
Checksums flac-md5 , ffp
Disc Counts 0 / 0
Media Size Compressed: 839 MB (879755264 bytes)
Uncompressed: 1.34 GB (1439100216 bytes)
Date Circulated
Date Added
09/17/2012
09/17/2012
Source Summary flac16; Matrix 3 Source Mix - SBD (shn id 81703) Recording Info: SBD -> Cassette Master (TDK MA-XG90) Transfer Info: Cassette Master (Tascam 122mkII) -> Apogee MiniMe (24bit/48k) -> Samplitude Professional v8.01 -> FLAC/16 All Transfers and Mastering By Charlie Miller + AUD1 (shn id 118402) Master Audience Recorded By Mr. Darby; AKGC451EB/CK1's (PAS/Section PP Row 14 Seat 9/6 Feet High)> AKG9V Phantom Power>Sony TC-D5M; Tapes Set 1:Maxell MX,Set 2:TDK MA-X; Transfer Information:Tascam 112 MKII (XLR Out)>Tascam HD-P2 @ 24/48> HDD>Amadeus Pro (Tracking/Fades/Flac8); Tracks Renamed/Metadata Tagging With AudioGate Software By Keo + AUD2 (no shn id) Audience recording from Video soundtrack - matrix mixing by Kevin Tobin 
  Archive
Source Information - Download Text | Download Zip
Grateful Dead
The Mecca, Milwaukee, WI
April 16, 1989

SBD + AUD Matrix 3 Source Mix (65%-AUD/35%-SBD)

Set 1:
d1t01 - Hell In A Bucket ->
d1t02 - They Love Each Other
d1t03 - Little Red Rooster
d1t04 - Stagger Lee
d1t05 - Mama Tried ->
d1t06 - Mexicali Blues
d1t07 - Bird Song

Set 2:
d1t08 - Scarlet Begonias ->
d1t09 - Fire On The Mountain
d2t01 - Saint Of Circumstance
d2t02 - Truckin' ->
d2t03 - Drums ->
d2t04 - Space ->
d2t05 - The Other One ->
d2t06 - Stella Blue ->
d2t07 - Throwing Stones ->
d2t08 - Turn On Your Lovelight

Encore:
d2t09 - Box Of Rain

SBD1
shnid = 81703
Recording Info:
SBD -> Cassette Master (TDK MA-XG90)

Transfer Info:
Cassette Master (Tascam 122mkII) -> Apogee MiniMe (24bit/48k) ->
Samplitude Professional v8.01 -> FLAC/16
(2 Discs Audio / 2 Discs FLAC)

All Transfers and Mastering By Charlie Miller
[email protected]
December 17, 2006

Notes:
-- 2nd Set is seamless
-- Thanks to Paul Scotton and Joani Walker for the tapes

AUD1
shnid = 118402
Master Audience Recorded By Mr. Darby
  AKGC451EB/CK1's (PAS/Section PP Row 14 Seat 9/6 Feet High)>
   AKG9V Phantom Power>Sony TC-D5M
    Tapes Set 1:Maxell MX,Set 2:TDK MA-X
Transfer Information:Tascam 112 MKII (XLR Out)>Tascam HD-P2 @ 24/48>
  HDD>Amadeus Pro (Tracking/Fades/Flac8)
Tracks Renamed/Metadata Tagging With AudioGate Software By Keo

AUD2
no shnid
LCPM audio from video soundtrack
---------------------------------------------------------
- Mixed by [email protected]com
- FLAC conversion 17-SEP-2012 - Trader Little Helper
-Tagged 17-SEP-2012 - Tag&Rename
---------------------------------------------------------
Multitrack Mixdown Settings

SET ONE

Stereo Matrix
SBD +1
AUD +1

SET TWO

Stereo Matrix
SBD +1
AUD +1
---------------------------------------------------------
Audio Patches:
1) Between They Love Each Other and Little Red Rooster, 26.406 seconds added to SBD1 soundtrack from AUD2 in order to match the video and the audience soundtracks.

2) Between Mexicali Blues and Bird Song, 13.293 seconds added to AUD1 soundtrack from AUD2 in order to match the video and the soundboard soundtracks.

3) Also between Mexicali Blues and Bird Song, 13.293 seconds added to SBD1 soundtrack from AUD2 in order to match the video and the audience soundtracks. This includes the first notes of Bird Song.

4) I used the video soundtrack as the timing reference and while the SBD1 was slightly slower than the video at about .3 seconds per minute, the AUD1 was very fast averaging about 1.4 seconds a minute faster than the video.

Brokedown House Production

    length     expanded size    cdr  WAVE problems  fmt   ratio  filename
     6:43.50       71206844 B   ---   --   -----    wav  1.0000  gd1989-04-16d1t01.wav
     7:08.08       75518060 B   ---   --   -----    wav  1.0000  gd1989-04-16d1t02.wav
     9:34.36      101338316 B   ---   --   -----    wav  1.0000  gd1989-04-16d1t03.wav
     6:06.52       64684748 B   ---   --   -----    wav  1.0000  gd1989-04-16d1t04.wav
     2:38.15       27906524 B   ---   --   -----    wav  1.0000  gd1989-04-16d1t05.wav
     5:12.11       55062716 B   ---   --   -----    wav  1.0000  gd1989-04-16d1t06.wav
    11:28.02      121367948 B   ---   --   -----    wav  1.0000  gd1989-04-16d1t07.wav
     8:58.44       95006732 B   ---   --   -----    wav  1.0000  gd1989-04-16d1t08.wav
    10:29.48      111068540 B   ---   --   -----    wav  1.0000  gd1989-04-16d1t09.wav
     6:02.18       63899180 B   ---   --   -----    wav  1.0000  gd1989-04-16d2t01.wav
     8:17.16       87708476 B   ---   --   -----    wav  1.0000  gd1989-04-16d2t02.wav
     8:12.25       86847644 B   ---   --   -----    wav  1.0000  gd1989-04-16d2t03.wav
     7:00.04       74097452 B   ---   --   -----    wav  1.0000  gd1989-04-16d2t04.wav
     6:28.30       68513804 B   ---   --   -----    wav  1.0000  gd1989-04-16d2t05.wav
     8:01.07       84864908 B   ---   --   -----    wav  1.0000  gd1989-04-16d2t06.wav
     9:33.65      101230124 B   ---   --   -----    wav  1.0000  gd1989-04-16d2t07.wav
     8:39.04       91561052 B   ---   --   -----    wav  1.0000  gd1989-04-16d2t08.wav
     5:24.27       57217148 B   ---   --   -----    wav  1.0000  gd1989-04-16d2t09.wav
   135:58.12     1439100216 B                            1.0000  (18 files)



Show Checksums
flac-md5
d0991ffee8fd17dbedeca22e7cc91475 *gd1989-04-16d1t01.flac
3830fda2ec8c378d0d81713b3e8e0b73 *gd1989-04-16d1t02.flac
4a9dcf822fb59cc80fff3f7b641780d8 *gd1989-04-16d1t03.flac
de3350b0dd9e9737a5d5f1f728583291 *gd1989-04-16d1t04.flac
f108ccc0c74eb6874485bf24284a1dcb *gd1989-04-16d1t05.flac
cdb55c4e5bc637a8a0c7ea1af78e88f5 *gd1989-04-16d1t06.flac
76f80d798881a852e644b6977ae142bb *gd1989-04-16d1t07.flac
286c02a49ad917636a60770a27ba826e *gd1989-04-16d1t08.flac
4126273496075187633e9159a412058f *gd1989-04-16d1t09.flac
d22f1a72ec6f1ac1bfed2168a61b9970 *gd1989-04-16d2t01.flac
2f07aed392d3a9df1347874bc23e658e *gd1989-04-16d2t02.flac
04e03c7145e13f47299a2df1a758d19e *gd1989-04-16d2t03.flac
2391cd6aa7f9f1f52e14442bc679565e *gd1989-04-16d2t04.flac
9030342067495e389e4ebff09a54fe5a *gd1989-04-16d2t05.flac
7a505f050581a924a691e30d8f6368eb *gd1989-04-16d2t06.flac
b19a50803e4ad422bb70d894be99c766 *gd1989-04-16d2t07.flac
3bcdcce97bb99622a46606b442abe9b8 *gd1989-04-16d2t08.flac
f1492371d8fd28fe4e279bcf31e5c544 *gd1989-04-16d2t09.flac
ffp
gd1989-04-16d1t01.flac:e9cb3a9f27dec5147ec893596825e095
gd1989-04-16d1t02.flac:3df5b6431c4fa5348b9649a9827dfc6d
gd1989-04-16d1t03.flac:2b52726729b7423ccf10cc67df873a96
gd1989-04-16d1t04.flac:1396e8457934c024eaccb8c6f1d35445
gd1989-04-16d1t05.flac:06c8ee4e7c318b33ee2bf43d086c36d6
gd1989-04-16d1t06.flac:ace6812af3159d99ab3cd8470fe040d4
gd1989-04-16d1t07.flac:46505f2684a294fb811f4a14fe56ff49
gd1989-04-16d1t08.flac:6f1137a596a257b63fcd4f8f5b2175e6
gd1989-04-16d1t09.flac:31cc9560558aba59f5107f443ecc5afa
gd1989-04-16d2t01.flac:0839c71b6de146d1ea5bf76be8a1cf58
gd1989-04-16d2t02.flac:a9809fa9871505eba3f6fc014bbae142
gd1989-04-16d2t03.flac:7df6a0380fa2ac28b19c4b0d5833698c
gd1989-04-16d2t04.flac:1c6478967702495ff90522b26091e300
gd1989-04-16d2t05.flac:8c68cbf21e56a36297f690964e607c8e
gd1989-04-16d2t06.flac:7f89a8d9957bff974b51d0fa54243262
gd1989-04-16d2t07.flac:08d719e65cb8069df044672d589e167a
gd1989-04-16d2t08.flac:d8e8a3831a09589c0473a42bfc5ab463
gd1989-04-16d2t09.flac:d0968b9f176229d9a50ab1b6eb5a1fa7

Comments
Add Comment
Other Sources (comments)
SBD> DAT> C> DAT> CD; via... (0) Shntool fix by Willy of... (0) flac16; Recording... (0) flac16; Source: AKG... (0) flac16;Recorded by... (0) flac 16; source:... (1) flac24; source:... (1) flac24; Master... (0) flac16; Master... (0) flac16; Source Info:... (0)
Date User Comment