Browse Collections Artists Sources   Search Dates

Add Show    List Management    Help


Tedeschi Trucks Band 09/22/12
Beacon Theatre, New York, NY
Comments Add Comment    Source Collectors    Add to Collection    Add to Want List    History
Source # 122746 Other Sources
Entered by
Checksums ffp
Disc Counts 0 / 0
Media Size
Date Circulated
Date Added
09/24/2012
11/06/2012
Source Summary Source: Schoeps CCM4V'S(din)>Lunatec V2>Benchmark AD2K>Sound Devices 722 (24/48)
DSP: Sound Devices 722>Sound Forge 9.0>CD Wave>flac(16) -- Recorded By: Z-Man 
  Archive
Source Information - Download Text | Download Zip
Tedeschi Trucks Band
Beacon Theatre
New York City, New York
9/22/2012

Source: Schoeps CCM4V'S(din)>Lunatec V2>Benchmark AD2K>
Sound Devices 722 (24/48)
FOB/DRFC/KFC/ZFC/AARP Loge Row A, Between Seats 2 and 101
DSP: Sound Devices 722>Sound Forge 9.0>CD Wave>flac(16)
Recorded By: Z-Man
Seeded By: Z-Man

Disc I

01 Love Has Something Else To Say
02 Isn't It A Pity
03 Everybody's Talkin' At Me
04 I Know
05 The Sky Is Cryin'
06 he Night They Drove Ol' Dixie Down
07 *Mahjoun
08 Midnight In Harlem >
09 Rollin' And Tumblin'
10 Shelter Me

Disc II

01 #Anyday >
02 That Did It
03 @Old Time Lovin'
04 Uptight, Alright
05 Drums, Bass, And Keyboard Jam
06 Bound For Glory
Encore:
07 Happy Birthday Kofi Burbridge
08 Angel From Montgomery >
09 Sugaree >
10 Angel From Montgomery
11 Simple Things >
12 Get What You Deserve
13 ^+Give It Up Or Let Me Go

* With Marc Quinones On Percussion
# With Blue Sky Jam
@ With Band Introductions By Saunders Sermons
^ With Eric Krasno On Guitar
+ With Ricky On Washboard

Derek Trucks - Guitar
Susan Tedeschi - Guitar And Vocals
Oteil Burbridge - Bass And Vocals
Kofi Burbridge - Keyboards, Flute, And Vocals
Tyler "Falcon" Greenwell - Drums
JJ Johnson - Drums
Mike Mattison - Vocals And Percussiom
Mark Rivers - Vocals And Percussion
Kebbi Williams - Tenor Saxophone
Maurice Brown - Trumpet
Saunders Sermons - Trombone And Vocals

Thanks To Corey and The Rest Of The Beacon Staff for Permitting Me To Record
From The Front Of The Loge!

Flac Fingerprint

ttb2012-09-22d01t01.flac:7debe71769be72cab7f2958dff02fbcd
ttb2012-09-22d01t02.flac:4bf08f006340e79335b0ad5924c7096c
ttb2012-09-22d01t03.flac:ac13cd0a7d412403df3a02e93b1ce40e
ttb2012-09-22d01t04.flac:200250c4925c721475cec1729c4d73ad
ttb2012-09-22d01t05.flac:55b7fced04b85b2c9b64aed560a501e5
ttb2012-09-22d01t06.flac:d0228dc03b458955b569e1958b416a45
ttb2012-09-22d01t07.flac:a1f986aabd48bbee78d09a6ae2ea670b
ttb2012-09-22d01t08.flac:c6057d369579e592a736f742d9284c74
ttb2012-09-22d01t09.flac:d47f851cb710077c43c9aee5d71a40f6
ttb2012-09-22d01t10.flac:d1c0e80b4f5584bbbd8e970804ba8b86
ttb2012-09-22d02t01.flac:94f43b95e52c8f490810e5d0f0d63fdc
ttb2012-09-22d02t02.flac:4d5ef8bbe1967ecfc994e23c75425f58
ttb2012-09-22d02t03.flac:24ffec8f6b704022c86dc774311ef6f6
ttb2012-09-22d02t04.flac:961209368d1e057f348b2437c3f97b71
ttb2012-09-22d02t05.flac:be3c2ddf2b458aa58d86a4f9fcefdef5
ttb2012-09-22d02t06.flac:ef4256d2d4aa713fa79a42be1fa2b1a4
ttb2012-09-22d02t07.flac:4f9ee8ff3e8a6d7cdf694bc8d2a4ffd6
ttb2012-09-22d02t08.flac:9eca33cf94def42569c3b8cb7d3107c7
ttb2012-09-22d02t09.flac:2de141590249d06f2e881eedacc13a0a
ttb2012-09-22d02t10.flac:3145e180042939e43919367acd1c9d77
ttb2012-09-22d02t11.flac:1508f39d4afb51266a4818f95bf05a7d
ttb2012-09-22d02t12.flac:89e8f1ab8883f1e39586ad011129ef30
ttb2012-09-22d02t13.flac:a01583765d87e1bdb2b6cf645ebcb93a

Shntool

    length     expanded size    cdr  WAVE problems  fmt   ratio  filename
     7:17.40       77180924 B   ---   --   ---xx   flac  0.5823  ttb2012-09-22d01t01.flac
     5:37.37       59533868 B   ---   --   ---xx   flac  0.5231  ttb2012-09-22d01t02.flac
     5:23.36       57061916 B   ---   --   ---xx   flac  0.5574  ttb2012-09-22d01t03.flac
     4:33.51       48277196 B   ---   --   ---xx   flac  0.5753  ttb2012-09-22d01t04.flac
     8:54.10       94221164 B   ---   --   ---xx   flac  0.5424  ttb2012-09-22d01t05.flac
     4:45.07       50290508 B   ---   --   ---xx   flac  0.5136  ttb2012-09-22d01t06.flac
     5:58.40       63245324 B   ---   --   ---xx   flac  0.4984  ttb2012-09-22d01t07.flac
     9:56.38      105223820 B   ---   --   ---xx   flac  0.4774  ttb2012-09-22d01t08.flac
     6:37.05       70042604 B   ---   --   ---xx   flac  0.5375  ttb2012-09-22d01t09.flac
     4:40.67       49549628 B   ---   --   ---xx   flac  0.4852  ttb2012-09-22d01t10.flac
    11:58.73      126826940 B   ---   --   ---xx   flac  0.5559  ttb2012-09-22d02t01.flac
     7:10.42       75950828 B   ---   --   ---xx   flac  0.5196  ttb2012-09-22d02t02.flac
     6:43.39       71180972 B   ---   --   ---xx   flac  0.4746  ttb2012-09-22d02t03.flac
     8:15.63       87466220 B   ---   --   ---xx   flac  0.5639  ttb2012-09-22d02t04.flac
     4:42.25       49803644 B   ---   --   ---xx   flac  0.5655  ttb2012-09-22d02t05.flac
    11:16.64      119396972 B   ---   --   ---xx   flac  0.5258  ttb2012-09-22d02t06.flac
     0:44.61        7905116 B   ---   --   ---xx   flac  0.4151  ttb2012-09-22d02t07.flac
     3:59.18       42201980 B   ---   --   ---xx   flac  0.3884  ttb2012-09-22d02t08.flac
     0:54.11        9551516 B   ---   --   ---xx   flac  0.4512  ttb2012-09-22d02t09.flac
     1:29.47       15810188 B   ---   --   ---xx   flac  0.4097  ttb2012-09-22d02t10.flac
     6:46.20       71665484 B   ---   --   ---xx   flac  0.5139  ttb2012-09-22d02t11.flac
     4:45.71       50441036 B   ---   --   ---xx   flac  0.6151  ttb2012-09-22d02t12.flac
     9:12.67       97530428 B   ---   --   ---xx   flac  0.5566  ttb2012-09-22d02t13.flac
   141:45.32     1500358276 B                            0.5283  (23 files)



Show Checksums
ffp
ttb2012-09-22d01t01.flac:7debe71769be72cab7f2958dff02fbcd
ttb2012-09-22d01t02.flac:4bf08f006340e79335b0ad5924c7096c
ttb2012-09-22d01t03.flac:ac13cd0a7d412403df3a02e93b1ce40e
ttb2012-09-22d01t04.flac:200250c4925c721475cec1729c4d73ad
ttb2012-09-22d01t05.flac:55b7fced04b85b2c9b64aed560a501e5
ttb2012-09-22d01t06.flac:d0228dc03b458955b569e1958b416a45
ttb2012-09-22d01t07.flac:a1f986aabd48bbee78d09a6ae2ea670b
ttb2012-09-22d01t08.flac:c6057d369579e592a736f742d9284c74
ttb2012-09-22d01t09.flac:d47f851cb710077c43c9aee5d71a40f6
ttb2012-09-22d01t10.flac:d1c0e80b4f5584bbbd8e970804ba8b86
ttb2012-09-22d02t01.flac:94f43b95e52c8f490810e5d0f0d63fdc
ttb2012-09-22d02t02.flac:4d5ef8bbe1967ecfc994e23c75425f58
ttb2012-09-22d02t03.flac:24ffec8f6b704022c86dc774311ef6f6
ttb2012-09-22d02t04.flac:961209368d1e057f348b2437c3f97b71
ttb2012-09-22d02t05.flac:be3c2ddf2b458aa58d86a4f9fcefdef5
ttb2012-09-22d02t06.flac:ef4256d2d4aa713fa79a42be1fa2b1a4
ttb2012-09-22d02t07.flac:4f9ee8ff3e8a6d7cdf694bc8d2a4ffd6
ttb2012-09-22d02t08.flac:9eca33cf94def42569c3b8cb7d3107c7
ttb2012-09-22d02t09.flac:2de141590249d06f2e881eedacc13a0a
ttb2012-09-22d02t10.flac:3145e180042939e43919367acd1c9d77
ttb2012-09-22d02t11.flac:1508f39d4afb51266a4818f95bf05a7d
ttb2012-09-22d02t12.flac:89e8f1ab8883f1e39586ad011129ef30
ttb2012-09-22d02t13.flac:a01583765d87e1bdb2b6cf645ebcb93a

Comments
Add Comment
Date User Comment