Browse Collections Artists Sources   Search Dates

Add Show    List Management    Help


Tedeschi Trucks Band 11/29/12
House of Blues, Boston, MA
Comments Add Comment    Source Collectors    Add to Collection    Add to Want List    History
Source # 122999 Other Sources
Entered by Steve Blanchard
Checksums ffp
Disc Counts 0 / 0
Media Size
Date Circulated
Date Added
11/30/2012
11/30/2012
Source Summary Source: Schoeps CCM4V'S(din)>Lunatec V2>Benchmark AD2K> Sound Devices 722 (24/48) -- BOB/OTS/DFC/KFC/ZFC/AARP 55' From Stage, 8' High -- DSP: Sound Devices 722>Sound Forge 9.0>CD Wave>flac(16) 
Source Information - Download Text | Download Zip
Tedeschi Trucks Band
House Of Blues
Boston, Massachusetts
11/29/2012

Source: Schoeps CCM4V'S(din)>Lunatec V2>Benchmark AD2K>
Sound Devices 722 (24/48)
BOB/OTS/DFC/KFC/ZFC/AARP 55' From Stage, 8' High
DSP: Sound Devices 722>Sound Forge 9.0>CD Wave>flac(16)

Recorded By: Z-Man
Seeded By: Z-Man

Disc I

01 Everybody's Talkin'
02 Wah Wah
03 Don't Let Me Slide
04 That Did It
05 I Know
06 Ball And Chain
07 The Sky Is Cryin'
08 Midnight In Harlem
09 Ain't No Use
10 Get What You Deserve

Disc II

01 Love Has Something Else To Say
02 Old Time Lovin'
03 Uptight, Alright >
04 Drum Solo
05 Bound For Glory
Encore:
06 Susan Banter
07 Angel From Montgomery >
08 Sugaree >
09 Angel From Montgomery
10 Wade In The Water >
11 Jam
12 Sweet Inspiration

Flac Fingerprint

ttb2012-11-29d01t01.flac:0b8cfa7e84b9dd5d28bf596868bf7886
ttb2012-11-29d01t02.flac:87431b1d47df49029e6fd6efb5f4eeb4
ttb2012-11-29d01t03.flac:292bd56b331f88d76114aa91321fec89
ttb2012-11-29d01t04.flac:a476ae2f72faf8e81eb0632079c2720f
ttb2012-11-29d01t05.flac:7ffb66384142f03da52e651d274021c6
ttb2012-11-29d01t06.flac:45865b7ac4926bcd5b17eb64b4698409
ttb2012-11-29d01t07.flac:5c685171a95e0d8d0b33659c4426e7ac
ttb2012-11-29d01t08.flac:2eb7ca76f70eb4415d3c5a3ffe0a71ad
ttb2012-11-29d01t09.flac:e7a3ca120068aceb0e872668cf5d31d8
ttb2012-11-29d01t10.flac:544014626a022769ddb82fcdf9a473b6
ttb2012-11-29d02t01.flac:72016fa994b21ee55fe5aa855c990b25
ttb2012-11-29d02t02.flac:763da4779eb20ab12a04f398e7a78ad6
ttb2012-11-29d02t03.flac:5563cda40cd6d7cb267f8136c582b387
ttb2012-11-29d02t04.flac:0e5eabfbdd908b49f4201e98fc7ab827
ttb2012-11-29d02t05.flac:cec5b6e3574d23bc04c6f43b51901d6d
ttb2012-11-29d02t06.flac:434ac1714aa75a626829d532bb413c5b
ttb2012-11-29d02t07.flac:278d3fad00a9f29b947ab14fbe01b5ec
ttb2012-11-29d02t08.flac:076ea39481b92b08c7c658a3710ed373
ttb2012-11-29d02t09.flac:31e4d6fd6abecea617275969d057bbeb
ttb2012-11-29d02t10.flac:6750cb3659aa315beda4a784ec21af57
ttb2012-11-29d02t11.flac:7c91a666969645f9f872a7056a7655a3
ttb2012-11-29d02t12.flac:eb2ecadc87ce01b5531b5488275c0eb6

Shntool

    length     expanded size    cdr  WAVE problems  fmt   ratio  filename
     5:33.44       58844732 B   ---   --   ---xx   flac  0.5018  ttb2012-11-29d01t01.flac
     5:31.31       58461356 B   ---   --   ---xx   flac  0.5523  ttb2012-11-29d01t02.flac
     6:00.18       63546380 B   ---   --   ---xx   flac  0.5281  ttb2012-11-29d01t03.flac
     7:40.02       81148748 B   ---   --   ---xx   flac  0.4957  ttb2012-11-29d01t04.flac
     3:56.22       41682188 B   ---   --   ---xx   flac  0.5591  ttb2012-11-29d01t05.flac
     4:36.06       48700556 B   ---   --   ---xx   flac  0.4839  ttb2012-11-29d01t06.flac
     8:11.24       86668892 B   ---   --   ---xx   flac  0.5177  ttb2012-11-29d01t07.flac
    10:30.30      111202604 B   ---   --   ---xx   flac  0.4636  ttb2012-11-29d01t08.flac
     9:38.15      101994524 B   ---   --   ---xx   flac  0.5438  ttb2012-11-29d01t09.flac
     4:37.12       48891068 B   ---   --   ---xx   flac  0.5839  ttb2012-11-29d01t10.flac
     8:12.35       86871164 B   ---   --   ---xx   flac  0.5302  ttb2012-11-29d02t01.flac
     6:33.20       69372284 B   ---   --   ---xx   flac  0.4438  ttb2012-11-29d02t02.flac
     7:41.51       81440396 B   ---   --   ---xx   flac  0.5402  ttb2012-11-29d02t03.flac
     4:26.40       47016524 B   ---   --   ---xx   flac  0.4520  ttb2012-11-29d02t04.flac
    11:32.42      122167628 B   ---   --   ---xx   flac  0.5005  ttb2012-11-29d02t05.flac
     0:50.61        8963516 B   ---   --   ---xx   flac  0.3528  ttb2012-11-29d02t06.flac
     4:13.48       44742140 B   ---   --   ---xx   flac  0.3990  ttb2012-11-29d02t07.flac
     1:08.00       11995244 B   ---   --   ---xx   flac  0.4333  ttb2012-11-29d02t08.flac
     1:26.49       15285692 B   ---   --   ---xx   flac  0.4146  ttb2012-11-29d02t09.flac
     5:55.28       62687900 B   ---   --   ---xx   flac  0.4471  ttb2012-11-29d02t10.flac
     5:04.26       53686796 B   ---   --   ---xx   flac  0.4072  ttb2012-11-29d02t11.flac
     7:03.27       74680748 B   ---   --   ---xx   flac  0.5407  ttb2012-11-29d02t12.flac
   130:23.31     1380051080 B                            0.4992  (22 files)






Show Checksums
ffp
ttb2012-11-29d01t01.flac:0b8cfa7e84b9dd5d28bf596868bf7886
ttb2012-11-29d01t02.flac:87431b1d47df49029e6fd6efb5f4eeb4
ttb2012-11-29d01t03.flac:292bd56b331f88d76114aa91321fec89
ttb2012-11-29d01t04.flac:a476ae2f72faf8e81eb0632079c2720f
ttb2012-11-29d01t05.flac:7ffb66384142f03da52e651d274021c6
ttb2012-11-29d01t06.flac:45865b7ac4926bcd5b17eb64b4698409
ttb2012-11-29d01t07.flac:5c685171a95e0d8d0b33659c4426e7ac
ttb2012-11-29d01t08.flac:2eb7ca76f70eb4415d3c5a3ffe0a71ad
ttb2012-11-29d01t09.flac:e7a3ca120068aceb0e872668cf5d31d8
ttb2012-11-29d01t10.flac:544014626a022769ddb82fcdf9a473b6
ttb2012-11-29d02t01.flac:72016fa994b21ee55fe5aa855c990b25
ttb2012-11-29d02t02.flac:763da4779eb20ab12a04f398e7a78ad6
ttb2012-11-29d02t03.flac:5563cda40cd6d7cb267f8136c582b387
ttb2012-11-29d02t04.flac:0e5eabfbdd908b49f4201e98fc7ab827
ttb2012-11-29d02t05.flac:cec5b6e3574d23bc04c6f43b51901d6d
ttb2012-11-29d02t06.flac:434ac1714aa75a626829d532bb413c5b
ttb2012-11-29d02t07.flac:278d3fad00a9f29b947ab14fbe01b5ec
ttb2012-11-29d02t08.flac:076ea39481b92b08c7c658a3710ed373
ttb2012-11-29d02t09.flac:31e4d6fd6abecea617275969d057bbeb
ttb2012-11-29d02t10.flac:6750cb3659aa315beda4a784ec21af57
ttb2012-11-29d02t11.flac:7c91a666969645f9f872a7056a7655a3
ttb2012-11-29d02t12.flac:eb2ecadc87ce01b5531b5488275c0eb6

Comments
Add Comment
Other Sources (comments)
Source: AKG C480B/CK63 >... (0) flac24 Source: AKG... (0) flac24 Source:... (0) Source: AKGc460b/ck63 >... (0) 4Channel Matrix -- Source... (0)
Date User Comment