Browse Collections Artists Sources   Search Dates

Add Show    List Management    Help


Tedeschi Trucks Band 08/14/11
Boulder Theater, Boulder, CO
Comments Add Comment    Source Collectors    Add to Collection    Add to Want List    History
Source # 123775 Other Sources
Entered by Steve Blanchard
Checksums ffp , md5 , st5
Disc Counts 0 / 0
Media Size
Uncompressed: 726.67 MB (761973264 bytes)
Date Circulated
Date Added
10/05/2011
02/09/2013
Source Summary Source: (FOB) Core Sound Binurals > Edirol r-09 16/44 > Sony rcd w500c > Sabrent 2.0 > Dell Inspiron 1501 Notebook > CD
Lineage: CD > EAC > .wav > Cool Edit Pro > CDWave > Flac 16
Recorded by Royboy 
  Archive
Source Information - Download Text | Download Zip
Tedeschi Trucks Band
Sunday, August 14, 2011
Boulder Theater, Boulder
Colorado

Source: (FOB) Core Sound Binurals > Edirol r-09 16/44 > Sony rcd w500c > Sabrent 2.0 > Dell Inspiron 1501 Notebook > CD
Lineage: CD > EAC > .wav > Cool Edit Pro > CDWave > Flac 16
Recorded by Royboy
Transferred on October 5, 2011
Tagging: Flacs tagged with Foobar2000 Live Show Tagger and Cover / Photo added to Tags with MP3 Tag v2.49

01 - Introduction
02 - Don't Let Me Slide
03 - Midnight In Harlem
04 - Interview with Nick Forster
05 - Learn How To Love
06 - chatter
07 - Shelter
08 - Bound For Glory
09 - Love Has Something Else To Say
10 - Band Introductions
11 - +Sing A Simple Song->
12 - +I Want To Take You Higher


Guests:
+ with Joseph Arthur - guitar, vocals; Nick Forster - guitar, vocals; Helen Forster - vocals

Lineup:
-Susan Tedeschi - guitar, vocals
-Derek Trucks - guitar
-Oteil Burbridge - bass, vocals
-Kofi Burbridge - keyboards, flute
-Tyler Greenwell - drums
-J.J. Johnson - drums
-Mike Mattison - vocals, guitar
-Mark Rivers - vocals
-Kebbi Williams - tenor saxophone
-Maurice Brown - trumpet
-Saunders Sermons - trombone

Notes:
-- E-Town Taping
-- Joseph Arthur also played
-- TTB played first, then Joseph Arthur played, then TTB closed the show
-- Boosted low levels on the interview portion so it is easier to hear

--------------

Editing Notes:
-- Fades added at beginning and end of set with Cool Edit Pro.
-- Tracking done in CDWave.
-- Sets are seamless.
-- EAC was performed with offsets corrected in secure mode.
-- All tracks were 100% error free when extracted with EAC.

*********************************
Shntool Output
    length     expanded size    cdr  WAVE problems  fmt   ratio  filename
     3:26.11       36364316 B   ---   --   ---xx   flac  0.3958  ttb2011-08-14t01_Introduction.flac
     5:55.17       62662028 B   ---   --   ---xx   flac  0.5529  ttb2011-08-14t02_Dont_Let_Me_Slide.flac
     7:53.48       83550140 B   ---   --   ---xx   flac  0.5077  ttb2011-08-14t03_Midnight_In_Harlem.flac
    15:10.38      160613420 B   ---   --   ---xx   flac  0.4307  ttb2011-08-14t04_Interview.flac
     7:32.74       79906892 B   ---   --   ---xx   flac  0.5652  ttb2011-08-14t05_Learn_How_To_Love.flac
     1:18.48       13872140 B   ---   --   ---xx   flac  0.4497  ttb2011-08-14t06_chatter.flac
     4:42.23       49798940 B   ---   --   ---xx   flac  0.4911  ttb2011-08-14t07_Shelter.flac
     8:05.30       85624604 B   ---   --   ---xx   flac  0.5383  ttb2011-08-14t08_Bound_For_Glory.flac
     6:51.62       72646268 B   ---   --   ---xx   flac  0.5829  ttb2011-08-14t09_Love_Has_Something.flac
     1:03.55       11242604 B   ---   --   ---xx   flac  0.5346  ttb2011-08-14t10_Band_Intros.flac
     3:10.47       33626588 B   ---   --   ---xx   flac  0.5606  ttb2011-08-14t11_Sing_A_Simple_Song.flac
     6:48.40       72065324 B   ---   --   ---xx   flac  0.5423  ttb2011-08-14t12_I_Want_To_Take_You_Higher.flac
    71:59.43      761973264 B                            0.5103  (12 files)


Show Checksums
ffp
ttb2011-08-14t01.flac:d1641cde62095cad77182e46de4dcf8a
ttb2011-08-14t02.flac:94828c8350d825975ed5c93ac6b7510b
ttb2011-08-14t03.flac:9432abafb6ae66d218bad4ba20e358f2
ttb2011-08-14t04.flac:c23393505350663a4a8176603ac98677
ttb2011-08-14t05.flac:57801656ccec75a36e0d7314bdb9d6f0
ttb2011-08-14t06.flac:6457900c66b0e0918cbc3d31f6b29fb2
ttb2011-08-14t07.flac:4d6ca5be875c4b2b589eccf92bf85b05
ttb2011-08-14t08.flac:6e4a295ec16f2cfd262924685790bbe4
ttb2011-08-14t09.flac:5894f82840f4716bba3ba921ea5a9ad7
ttb2011-08-14t10.flac:9bb867d1c61778c80663f8de5dcab745
ttb2011-08-14t11.flac:8b244472eb02e9202a30535e244089d5
ttb2011-08-14t12.flac:69519814d27cbc43194801d23dfde606
md5
1799144e7fb996111cd3e63577207607 *ttb2011-08-14t01.flac
562d04443a3e4f022b7fcfdcc014fe74 *ttb2011-08-14t02.flac
832c09c79bf44db3fda4f29a99dcc4e2 *ttb2011-08-14t03.flac
1792d3afc9c97be533118142fe6a1036 *ttb2011-08-14t04.flac
60e9146ef222afea808a2b7d3a2514d6 *ttb2011-08-14t05.flac
f5adf347ab71c0c5c5d9d4e1a27b6e14 *ttb2011-08-14t06.flac
f65cd21525050826b801c7f8f9d8c19d *ttb2011-08-14t07.flac
ecb74d4c0465e859272dbc7104595209 *ttb2011-08-14t08.flac
966ed0475379d29bd19feea80e0328e8 *ttb2011-08-14t09.flac
d85baf229aa2712b7d74e92d85bc24d6 *ttb2011-08-14t10.flac
ac44fb0dda0437036b1da661ee2e9e4e *ttb2011-08-14t11.flac
9445940a445356e0db9948ee5ca90110 *ttb2011-08-14t12.flac
st5
d1641cde62095cad77182e46de4dcf8a [shntool] ttb2011-08-14t01.flac
94828c8350d825975ed5c93ac6b7510b [shntool] ttb2011-08-14t02.flac
9432abafb6ae66d218bad4ba20e358f2 [shntool] ttb2011-08-14t03.flac
c23393505350663a4a8176603ac98677 [shntool] ttb2011-08-14t04.flac
57801656ccec75a36e0d7314bdb9d6f0 [shntool] ttb2011-08-14t05.flac
6457900c66b0e0918cbc3d31f6b29fb2 [shntool] ttb2011-08-14t06.flac
4d6ca5be875c4b2b589eccf92bf85b05 [shntool] ttb2011-08-14t07.flac
6e4a295ec16f2cfd262924685790bbe4 [shntool] ttb2011-08-14t08.flac
5894f82840f4716bba3ba921ea5a9ad7 [shntool] ttb2011-08-14t09.flac
9bb867d1c61778c80663f8de5dcab745 [shntool] ttb2011-08-14t10.flac
8b244472eb02e9202a30535e244089d5 [shntool] ttb2011-08-14t11.flac
69519814d27cbc43194801d23dfde606 [shntool] ttb2011-08-14t12.flac

Comments
Add Comment
Other Sources (comments)
Source: FM (E-Town... (0)
Date User Comment