Browse Collections Artists Sources   Search Dates

Add Show    List Management    Help


Tedeschi Trucks Band 08/14/11
Boulder Theater, Boulder, CO
Comments Add Comment    Source Collectors    Add to Collection    Add to Want List    History
Source # 123776 Other Sources
Entered by
Checksums ttb2011-08-14.fm.royboy.flac16.md5 , ttb2011-08-14.fm.royboy.flac16.ffp , ttb2011-08-14.fm.royboy.st5
Disc Counts 0 / 0
Media Size
Uncompressed: 298.64 MB (313143280 bytes)
Date Circulated
Date Added
11/13/2011
02/09/2013
Source Summary Source: FM (E-Town Broadcast) > Edirol r-09 16/44 > Sony rcd w500c > Sabrent 2.0 > Dell Inspiron 1501 Notebook > CD
Lineage: CD > EAC > .wav > Cool Edit Pro > CDWave > Flac 16
Recorded by Royboy 
  Archive
Source Information - Download Text | Download Zip
Tedeschi Trucks Band
Sunday, August 14, 2011
Boulder Theater, Boulder
Colorado

Source: FM (E-Town Broadcast) > Edirol r-09 16/44 > Sony rcd w500c > Sabrent 2.0 > Dell Inspiron 1501 Notebook > CD
Lineage: CD > EAC > .wav > Cool Edit Pro > CDWave > Flac 16
Recorded by Royboy
Transferred on November 13, 2011
Tagging: Flacs tagged with Foobar2000 Live Show Tagger and Cover / Photo added to Tags with MP3 Tag v2.49

01 - Introduction
02 - Don't Let Me Slide
03 - Interview with Nick Forster
04 - Shelter
05 - Band Introductions
06 - Love Has Something Else To Say
07 - Band Introductions
08 - Sing A Simple Song +

Guests:
+ with Joseph Arthur - guitar, vocals; Nick Forster - guitar, vocals; Helen Forster - vocals

Lineup:
-Susan Tedeschi - guitar, vocals
-Derek Trucks - guitar
-Oteil Burbridge - bass, vocals
-Kofi Burbridge - keyboards, flute
-Tyler Greenwell - drums
-J.J. Johnson - drums
-Mike Mattison - vocals, guitar
-Mark Rivers - vocals
-Kebbi Williams - tenor saxophone
-Maurice Brown - trumpet
-Saunders Sermons - trombone

Notes:
-- E-Town Taping
-- The advertisements / promotions / random dj chatter was edited out
-- Joseph Arthur also played
-- TTB played first, then Joseph Arthur played, then TTB closed the show
-- Sing A Simple Song is a very truncated version from what was played live.  It has DJ chatter toward the end

--------------

Editing Notes:
-- Fades added at beginning and end of set with Cool Edit Pro.
-- Tracking done in CDWave.
-- EAC was performed with offsets corrected in secure mode.
-- All tracks were 100% error free when extracted with EAC.

*********************************
Shntool Output
    length     expanded size    cdr  WAVE problems  fmt   ratio  filename
     1:52.02       19761548 B   ---   --   ---xx   flac  0.5600  ttb2011-08-14-fm-01_Introduction.flac
     6:02.28       63922700 B   ---   --   ---xx   flac  0.6390  ttb2011-08-14-fm-02_Dont_Let_Me_Slide.flac
     6:08.51       65035196 B   ---   --   ---xx   flac  0.5364  ttb2011-08-14-fm-03_Interview.flac
     4:21.74       46214492 B   ---   --   ---xx   flac  0.5926  ttb2011-08-14-fm-04_Shelter.flac
     0:26.21        4635836 B   ---   --   ---xx   flac  0.6570  ttb2011-08-14-fm-05_Band_Intros.flac
     6:17.38       66592220 B   ---   --   ---xx   flac  0.6641  ttb2011-08-14-fm-06_Love_Has_Something.flac
     1:27.13       15377420 B   ---   --   ---xx   flac  0.6600  ttb2011-08-14-fm-07_Band_Intros.flac
     2:59.12       31603868 B   ---   --   ---xx   flac  0.6357  ttb2011-08-14-fm-08_Simple_Song.flac
    29:35.14      313143280 B                            0.6121  (8 files)
Show Checksums
ttb2011-08-14.fm.royboy.flac16.md5
5f5bb12b68e95ed4766bf58079930208 *ttb2011-08-14t01.flac
5b05339ad7b673b4c4f66a5ea623e0f2 *ttb2011-08-14t02.flac
04e4e9bdf80c9b320acec5260a5efc65 *ttb2011-08-14t03.flac
9ebc6f8bf0e1b3b27cb61d8be5e34d71 *ttb2011-08-14t04.flac
b966b78dfa7855d1fc572da43a22d23e *ttb2011-08-14t05.flac
a3dd71fc57b20754a63f69500f0c8d7e *ttb2011-08-14t06.flac
023ca42e4048dd3423cd055b931b5ca9 *ttb2011-08-14t07.flac
571678db47e86f9d907565132cba3e8f *ttb2011-08-14t08.flac
ttb2011-08-14.fm.royboy.flac16.ffp
ttb2011-08-14t01.flac:fd781a661bf053d590e39c6e741dd530
ttb2011-08-14t02.flac:b63be9fa1ba71fb1e505f3cef5e0a916
ttb2011-08-14t03.flac:e255c192d13f1539b4562f0a04f51dbf
ttb2011-08-14t04.flac:ed557143031f5dad7da90e8af161bba6
ttb2011-08-14t05.flac:03fd211205b1fb6537dc8c769f15732a
ttb2011-08-14t06.flac:6abcd49aa6e0619126bbb7bcf205bbbf
ttb2011-08-14t07.flac:c9247e300acae1d2fffa9a5fc2a6906f
ttb2011-08-14t08.flac:ed2b75bd585c7f7ed575550c84208d92
ttb2011-08-14.fm.royboy.st5
fd781a661bf053d590e39c6e741dd530 [shntool] ttb2011-08-14t01.flac
b63be9fa1ba71fb1e505f3cef5e0a916 [shntool] ttb2011-08-14t02.flac
e255c192d13f1539b4562f0a04f51dbf [shntool] ttb2011-08-14t03.flac
ed557143031f5dad7da90e8af161bba6 [shntool] ttb2011-08-14t04.flac
03fd211205b1fb6537dc8c769f15732a [shntool] ttb2011-08-14t05.flac
6abcd49aa6e0619126bbb7bcf205bbbf [shntool] ttb2011-08-14t06.flac
c9247e300acae1d2fffa9a5fc2a6906f [shntool] ttb2011-08-14t07.flac
ed2b75bd585c7f7ed575550c84208d92 [shntool] ttb2011-08-14t08.flac

Comments
Add Comment
Other Sources (comments)
Source: (FOB) Core Sound... (0)
Date User Comment