Browse Collections Artists Sources   Search Dates

Add Show    List Management    Help


Garcia 03/14/87
Wiltern Theater, Los Angeles, CA
Comments Add Comment    Source Collectors    Add to Collection    Add to Want List    History
Source # 124259 Other Sources
Entered by Joe Jupille
Checksums JGB1987-03-14.AA.ToaK1s.flac24.ffp.txt
Disc Counts 0 / 0
Media Size
Uncompressed: 1.29 MB (1352663 bytes)
Date Circulated
Date Added
03/27/2013
03/27/2013
Source Summary JGB; flac1644; FOB Master Audience: Master info: Seats Orch Row D Seat 114 Aisle 4; MAC: Toa k1's Handheld about 4' apart chest high > Sony WM-TCD-6C > Maxell XLII-S 90's x 2 (Dolby C on). 
Source Information - Download Text | Download Zip
Jerry Garcia Band
1987-03-14
Saturday

Wiltern Theatre
Los Angeles CA
****************************************************************************************************
**** As seamless as it can be  24bit/48k  file set  NOT intended  to burn direct to CD ****
****************************************************************************************************
FOB Master Audience:
Master info:
Seats Orch Row D Seat 114 Aisle 4
MAC: Toa k1's Handheld about 4' apart chest high > Sony WM-TCD-6C > Maxell XLII-S 90's x 2 (Dolby C on)
----------------------------------------------------------------------------------------------------
PlayBack:
MAC: Tascam 302 Dolby C on >  ArchivalSilver/Gold RCA/1/4" TS > 1/4"> Tascam DR-680 24bit/48khz (dual mono)> Transcend SDHC Class10 card

----------------------------------------------------------------------------------------------------

An ArchivalAudio Production first released on LosslessLegs ++++ www.shnflac.net ++++
----------------------------------------------------------------------------------------------------
Recorded by: ArchivalAudio        ArchivalAudio [at] gmail [dot] com

Transfer info:
SDHC card > iMac 3.06 Ghz i3 12 GR 133MHz DDR3 > AudioFile Engineering Wave Editor 1.57
Normalize to -.9 db (each side) Remove DC offset regions [labels] exported .wav  >
xACT v2.21to FLAC (level 8 ) Metadata (aka tags), generate ffp and len (shntool) output
~~~~~~~~~~~~~~~~~~~~~~~~~~~~~~~~~~~~~~~~~~~~~~~~~~~~~~~~~~~~~~~~~~~~~~~~~~~~~~~~~~~~~~~~~~~~~~~~~~~~~~
Recorded, Transferred, Mastered & Seeded by Ian Stoy aka ArchivalAudio
~~~~~~~~~~~~~~~~~~~~~~~~~~~~~~~~~~~~~~~~~~~~~~~~~~~~~~~~~~~~~~~~~~~~~~~~~~~~~~~~~~~~~~~~~~~~~~~~~~~~~~
Jerry Garcia Band is:

Jerry Garcia guitar, vocals
John Kahn bass
Melvin Seals keyboards
Jaclyn LaBranch backing vocals
Gloria Jones backing vocals
David Kemper drums

Tracked by set:

Set 1
------
t01.s1 Crowd/Tuning
t02.s1 Cats Under The Stars
t03.s1 Mission In The Rain
t04.s1 They Love Each Other
t05.s1 Simple Twist Of Fate
t06.s1 Think
  [Tape Flip]
t07.s1 Like A Road
t08.s1 Deal


Set 2
------
t01.s2 Get Out Of My Life Woman
t02.s2 Run For The Roses
t03.s2 Love In The Afternoon
t04.s2 Gomorrah
t05.s2 Crazy Love
t06.s2 That Lucky Old Sun
  [Tape Flip]
t07.s2 Midnight Moonlight

~~~~~~~~~~~~~~~~~~~~~~~~~~~~~~~~~~~~~~~~~~~~~~~~~~~~~~~~~~~~~~~~~~~~~~~~~~~~~~~~~~~~~~~~~~~~~~~~~~~~~~~~~~
Notes:
Flaws =
Second ever "stealth" show, hand held mics, cable connection:
crackles and a drop out or two, In the Left channel during Cats.
I did my best to lessen the pops but left the slight dropout.

At the beginning of set 2 security was trying to seat someone in our Aisle flashlight out and pointed at us, and therefore the start of Get out of my life… was a bit muffled and a second or two was missing.
Also the tape flip at the end of set 2 caused a second or two of might nigh moonlight to be missing.

Light phasing can be heard throughout the show due to hand held spaced cardiod mics.
A light buzz in the PA can be heard , more prevalent in quiter passages.
Can be rougher at times but overall not that bad…

~~~~~~~~~~~~~~~~~~~~~~~~~~~~~~~~~~~~~~~~~~~~~~~~~~~~~~~~~~~~~~~~~~~~~~~~~~~~~~~~~~~~~~~~~~~~~~~~~~~~~~~~~~
Brief Story:
As with a number of LA shows my friend James (Jim) Ford waited in line to get the tix when they went on sale. Hime and Ron Cook help me get my gear in and hold one of the mics. This show was before In The Dar came out, and was lacking many of the In The Dark heads that attended the December '87 run we recorded., post Broadway run.  These 2 shows Friday  3/13 and sat 3/14 were the first shows I ever "stealthed" and was surprised there was "No Recording" enforced.  I did record 10/31/86 JGB and Kingfish, That was open with stands but I had an impedance mis-match and my recordings came out horrid. Back to 3/14 Light phasing can be heard  throughout the show due to hand held mics. The right channel (if I recall correct) was held by me mostly, except starting stopping  or adjusting levels on my D-6. I held my mic chest high and mostly still aimed at the right stack. Whereas the left cannel was more casually held and potential lower. The night before due to my first steal thing, I managed to record the second set over the first set, and due to cable issues, I believe that only one channel was recorded super botched job.
We had a bank of 4 seats each night we were in Row D  I was in  Seat 114. First time at the Wiltern and it was very sweet!


enjoy!


ArchivalAudio

2013-03-26

--------------------------------------------------------------------------------------------------------------
Please do not (ever) convert to lossy formats such as MP3, AAC or other unless for personal use.
--------------------------------------------------------------------------------------------------------------
This Recording is not for sale: Do Not Ever buy or sell this recording - it is a gift.
--------------------------------------------------------------------------------------------------------------
If you'd like to share on other trackers, please wait until this has run its course.
include all original files, without any alterations - Ticket Stub included.
--------------------------------------------------------------------------------------------------------------


--------------------------------------------------------------------------------------------------------------
shntool:
    length     expanded size    cdr  WAVE problems  fmt   ratio  filename
     1:08.727      19793300 B   cxx   --   ---xx   flac  0.6707  JGB1987-03-14.Set1.AA.ToaK1s.t01.s1.flac
     9:33.321     165116630 B   cxx   --   ---xx   flac  0.7183  JGB1987-03-14.Set1.AA.ToaK1s.t02.s1.flac
     9:44.656     168380864 B   cxx   --   ---xx   flac  0.7364  JGB1987-03-14.Set1.AA.ToaK1s.t03.s1.flac
     7:09.262     123627410 B   cxx   --   ---xx   flac  0.7338  JGB1987-03-14.Set1.AA.ToaK1s.t04.s1.flac
    12:45.851     220565108 B   cxx   --   ---xx   flac  0.6881  JGB1987-03-14.Set1.AA.ToaK1s.t05.s1.flac
     6:27.708     111659894 B   cxx   --   ---xx   flac  0.7482  JGB1987-03-14.Set1.AA.ToaK1s.t06.s1.flac
     7:31.824     130125224 B   cxx   --   ---xx   flac  0.7215  JGB1987-03-14.Set1.AA.ToaK1s.t07.s1.flac
     6:19.133     109190402 B   cxx   --   ---xx   flac  0.7597  JGB1987-03-14.Set1.AA.ToaK1s.t08.s1.flac
     8:21.447     144416696 B   cxx   --   ---xx   flac  0.7004  JGB1987-03-14.Set2.AA.ToaK1s.t01.s2.flac
     6:09.880     106525364 B   cxx   --   ---xx   flac  0.7066  JGB1987-03-14.Set2.AA.ToaK1s.t02.s2.flac
     8:42.477     150473432 B   cxx   --   ---xx   flac  0.6927  JGB1987-03-14.Set2.AA.ToaK1s.t03.s2.flac
     7:40.762     132699620 B   cxx   --   ---xx   flac  0.6961  JGB1987-03-14.Set2.AA.ToaK1s.t04.s2.flac
     4:53.529      84536378 B   cxx   --   ---xx   flac  0.7012  JGB1987-03-14.Set2.AA.ToaK1s.t05.s2.flac
     9:17.515     160564478 B   cxx   --   ---xx   flac  0.6843  JGB1987-03-14.Set2.AA.ToaK1s.t06.s2.flac
     6:47.919     117480836 B   cxx   --   ---xx   flac  0.7312  JGB1987-03-14.Set2.AA.ToaK1s.t07.s2.flac
   112:34.010    1945155636 B                            0.7130  (15 files)





   --------------------------------------------------------------------------------------------------------------


Show Checksums
JGB1987-03-14.AA.ToaK1s.flac24.ffp.txt
JGB1987-03-14.Set1.AA.ToaK1s.t01.s1.flac:25377c39b3dc13f7f142ec4b095b21e8
JGB1987-03-14.Set1.AA.ToaK1s.t02.s1.flac:3ce180707dc11249fb0e73c6b8e0ffcc
JGB1987-03-14.Set1.AA.ToaK1s.t03.s1.flac:bdad35e59a3a91952c475d6672a1a437
JGB1987-03-14.Set1.AA.ToaK1s.t04.s1.flac:f96f3d317fa1c8d96374da62ea9beba3
JGB1987-03-14.Set1.AA.ToaK1s.t05.s1.flac:d1e0837900bcc69f2a73b92f14312657
JGB1987-03-14.Set1.AA.ToaK1s.t06.s1.flac:1c0c514539f503201b774fa5bd24ad0d
JGB1987-03-14.Set1.AA.ToaK1s.t07.s1.flac:28c01d381bfe03176700ccb859c2bee0
JGB1987-03-14.Set1.AA.ToaK1s.t08.s1.flac:ad5528af10220d188a54319417dabb2c
JGB1987-03-14.Set2.AA.ToaK1s.t01.s2.flac:2cc5f1dcafd01f26e89740181f1f77c3
JGB1987-03-14.Set2.AA.ToaK1s.t02.s2.flac:6fa45dff99fec1ac900797ee186b6d59
JGB1987-03-14.Set2.AA.ToaK1s.t03.s2.flac:f9f7df8a396fe6709b316779895e3077
JGB1987-03-14.Set2.AA.ToaK1s.t04.s2.flac:8028dec0951117d92be29db2212f32ac
JGB1987-03-14.Set2.AA.ToaK1s.t05.s2.flac:f61fe58967309c7559a367fa9234366a
JGB1987-03-14.Set2.AA.ToaK1s.t06.s2.flac:8f6ce13cd6bb1add74e5e45ee7f77cda
JGB1987-03-14.Set2.AA.ToaK1s.t07.s2.flac:2fc828d128c0a2b375f3b5e16924d1ac

Comments
Add Comment
Other Sources (comments)
Jerry Garcia Band: Sony 939... (0)
Date User Comment
03/29/2013 1478 Source description says 16/44 but this is a 24bit/48k file set. Says so right there in the text. The 16/44 file set has not been uploaded yet as of 3/29/13.
03/29/2013 1478 "As seamless as it can be 24bit/48k file set NOT intended to burn direct to CD"