Browse Collections Artists Sources   Search Dates

Add Show    List Management    Help


Allman Brothers Band 10/07/91
Rockline, Hollywood, CA
Comments Add Comment    Source Collectors    Add to Collection    Add to Want List    History
Source # 126401 Other Sources
Entered by Matt Vernon
Checksums ffp , ffp-rename
Disc Counts 0 / 0
Media Size Compressed: 116.27 MB (121917931 bytes)
Uncompressed: 182.13 MB (190977872 bytes)
Date Circulated
Date Added
10/13/2013
12/29/2013
Source Summary Silvers -> MAXX (EAC) 
Source Information - Download Text | Download Zip
Allman Brothers Band
1991-10-07
Los Anglels CA
Rockline FM Radio

Silvers -> MAXX (EAC)

01. Midnight Rider
02. Come On In My Kitchen
03. Melissa
04. Come On In My Kitchen

05. Going Down The Road Feeling Bad


length     expanded size    cdr  WAVE problems  fmt   ratio  filename
    3:38.28       38521100 B   ---   --   ---xx   flac  0.6304  01. Midnight Rider.flac
    5:17.52       56041148 B   ---   --   ---xx   flac  0.6414  02. Come On In My Kitchen.flac
    5:24.45       57259484 B   ---   --   ---xx   flac  0.6402  03. Melissa.flac
    3:41.73       39156140 B   ---   --   ---xx   flac  0.6392  04. Going Down The Road Feeling Bad.flac
   18:02.48      190977872 B                            0.6384  (4 files)




Show Checksums
ffp
01. Midnight Rider.flac:802fbd66cbfc57fe62680c2f1feff45b
02. Come On In My Kitchen.flac:c6cb29f4cb9583f2f1f2ecb77e2dcaca
03. Melissa.flac:1f9bc253f49418ed6239ab1c2e8eb3f8
04. Going Down The Road Feeling Bad.flac:5bb7e7ba4a51683323cee6a420c0a3e0
ffp-rename
abb1991-10-07t01. Midnight Rider.flac:802fbd66cbfc57fe62680c2f1feff45b
abb1991-10-07t02. Come On In My Kitchen.flac:c6cb29f4cb9583f2f1f2ecb77e2dcaca
abb1991-10-07t03. Melissa.flac:1f9bc253f49418ed6239ab1c2e8eb3f8
abb1991-10-07t04. Going Down The Road Feeling Bad.flac:5bb7e7ba4a51683323cee6a420c0a3e0

Comments
Add Comment
Date User Comment