Browse Collections Artists Sources   Search Dates

Add Show    List Management    Help


Trey Anastasio 01/31/14
Uptown Theater, Kansas City, MO
Comments Add Comment    Source Collectors    Add to Collection    Add to Want List    History
Source # 128815 Other Sources
Entered by Matt Vernon
Checksums FLAC MD5 , ffp-alternate
Disc Counts 0 / 0
Media Size Compressed: 1.02 GB (1093613917 bytes)
Date Circulated
Date Added
02/04/2014
05/26/2014
Source Summary flac16, 44kHz; MBHO KA200N's > Niant Tinybox > Sony PCM-M10; Sony PCM-M10 > Audacity > CDWave > FLAC; Source and Transfer by Brian Price 
Source Information - Download Text | Download Zip
Trey Anastasio Band
2014-01-24
The Uptown Theatre - Kansas City, MO
MBHO KA200N Active>Niant Tinybox 2.2w/output Caps>Sony PCM-M10 16/44.1
Normalize & Parallel Compression in Audacity>CDWav>FLAC
Taped By Brian Price [email protected]
A Team Kansasouri Production

**** DO NOT BUY OR SELL THIS RECORDING ****



Set 1

01. crowd
02. Cayman Review
03. Magilla
04. Alaska
05. Valentine
06. Dark & Down
07. Pulsing Days
08. Gotta Jibboo
09. Frost
10. Burlap Sack and Pumps
11. Silver Smoke
12. 1977 ~
13. Money, Love and Change

Set 2

01. crowd
02. Pigtail
03. Bounce
04. Gone
05. Sand
06. Sometime after Sunset ^
07. Architect
08. Greyhound Rising
09. Traveler
10. Scabbard
11. Clint Eastwood
12. Push On 'Til the Day
Encore:
13. Shine
14. Black Dog


------------------------------------------------
notes:
Chinese New Year
~ Ana Tijoux cover
^ 1st time played (?) not sure on the title



Show Checksums
FLAC MD5
6d99a57300c3da79d9d8ccb8bace4e49 *tab2014-01-31mbh0_s1t01.flac
927d2e2ed15132fbf5da85c0fa2159a0 *tab2014-01-31mbh0_s1t02.flac
400d6cee18acd45141fee2dd4fafd354 *tab2014-01-31mbh0_s1t03.flac
3721b59d4877588a892b473bf30421f5 *tab2014-01-31mbh0_s1t04.flac
f37aee14f9ab71d828ead4473eed65fd *tab2014-01-31mbh0_s1t05.flac
29b07fc3d587375b473dadf1e7e8ab6e *tab2014-01-31mbh0_s1t06.flac
e6d74bf7a9b8d1bdbaab4d1f15089aba *tab2014-01-31mbh0_s1t07.flac
28db679a6319a8d9f4480b4de23d2f95 *tab2014-01-31mbh0_s1t08.flac
49cab03a9f4e5b90f7b42d38534e9775 *tab2014-01-31mbh0_s1t09.flac
c4acba2bdf9fdac03bd3cd6914254a71 *tab2014-01-31mbh0_s1t10.flac
aae0deb5324e92205e4c9679dff6a0e6 *tab2014-01-31mbh0_s1t11.flac
7d827ec14ed6e41e964b3aa8969dadd9 *tab2014-01-31mbh0_s1t12.flac
55f3cdc0b72bbafff772da0e5014d60d *tab2014-01-31mbh0_s1t13.flac
607b844fa002d2344fff365dbaf30d4c *tab2014-01-31mbh0_s2t01.flac
5ca9928e143421359549eb969e5b15d8 *tab2014-01-31mbh0_s2t02.flac
949424e2151367ba9202f2a02362db45 *tab2014-01-31mbh0_s2t03.flac
ed7e8c3605ecb1976739e7c8f88c6f83 *tab2014-01-31mbh0_s2t04.flac
eabdf47e70a4c235d2b105f0f2c656f5 *tab2014-01-31mbh0_s2t05.flac
55b5dc8f0997e7d2dfb97a2cd9be0bcd *tab2014-01-31mbh0_s2t06.flac
4ebaf4705fa3b113f8757ea796422c80 *tab2014-01-31mbh0_s2t07.flac
f6a929d5fc25398d562d0369a1787fba *tab2014-01-31mbh0_s2t08.flac
88eb5750989dd1a5379727d58b4574d0 *tab2014-01-31mbh0_s2t09.flac
f66991b97ae42d2bf705b284bc9c6ddc *tab2014-01-31mbh0_s2t10.flac
ea3a7327bbab08db2f6efe94b9e030d7 *tab2014-01-31mbh0_s2t11.flac
bc55a5bbbabeb5e7ef68c85f208c7f32 *tab2014-01-31mbh0_s2t12.flac
ee124bb8510cc198f70f7d251ee7d287 *tab2014-01-31mbh0_s2t13.flac
44a6cc0c7d5b069b326d0af55a330b68 *tab2014-01-31mbh0_s2t14.flac
ffp-alternate
tab2014-01-31mbh0_s1t01.flac:de4cd4473be6ae3f331eb486f27c08b5
tab2014-01-31mbh0_s1t02.flac:b02e54f4c9af6087161f98bbedb52709
tab2014-01-31mbh0_s1t03.flac:cbe63bb4b2616991694f619ffccb4d05
tab2014-01-31mbh0_s1t04.flac:0f3bdd1b76dc29dc48c127680e3529d3
tab2014-01-31mbh0_s1t05.flac:971dc1615bb2b5c8636c479edb3c8d55
tab2014-01-31mbh0_s1t06.flac:54683aeb85b14ac4135aff3e993cda2a
tab2014-01-31mbh0_s1t07.flac:989770d0c3e92fd28bc8753b04038e4c
tab2014-01-31mbh0_s1t08.flac:38521ef5fafbff76a75e5d14ec58cde1
tab2014-01-31mbh0_s1t09.flac:668064525bccda603f8a50a0ff641b37
tab2014-01-31mbh0_s1t10.flac:d9e00e2457849493249bbe37965319cc
tab2014-01-31mbh0_s1t11.flac:2c5f35259f5ed91c5b53f9c2a190bc6e
tab2014-01-31mbh0_s1t12.flac:0a9ae26264c606d0919ed4e361494e07
tab2014-01-31mbh0_s1t13.flac:2e6d7ba5abd16ecc591173b6405485b7
tab2014-01-31mbh0_s2t01.flac:1f75938304ddff3b332252f63b56a94b
tab2014-01-31mbh0_s2t02.flac:e83241f95d0f84b7dd560375aa493159
tab2014-01-31mbh0_s2t03.flac:2acbfcc02fb59f9bc976a4ac4013477a
tab2014-01-31mbh0_s2t04.flac:db00ed9279e4b0c0bd1bc75358df4e23
tab2014-01-31mbh0_s2t05.flac:36c9d26d4b6af716be5d2035144ecded
tab2014-01-31mbh0_s2t06.flac:799b86960679f80ccbda75d24f4e774e
tab2014-01-31mbh0_s2t07.flac:1d04e8179e50af4e207c58847702e5ae
tab2014-01-31mbh0_s2t08.flac:bd2e3441d3625ea64137bca9ff57d99d
tab2014-01-31mbh0_s2t09.flac:73436fa7d017655266e3ba05e4214ccd
tab2014-01-31mbh0_s2t10.flac:ca4ae1fb71ab77755319fafba4000f2d
tab2014-01-31mbh0_s2t11.flac:22ed56ea904068de0108f55cdd35d6dc
tab2014-01-31mbh0_s2t12.flac:f343d33edcef247ff73889de09e79aa3
tab2014-01-31mbh0_s2t13.flac:3cc2243506f5759aa2a07c6bf71fbf9f
tab2014-01-31mbh0_s2t14.flac:28fbe49f93216af38cc67d47a4578459

Comments
Add Comment
Other Sources (comments)
flac16, 44kHz;... (0) flac16, 44kHz;... (0) flac16, 44kHz;... (0) flac16, 44kHz;... (0) flac24, 48kHz;... (0) flac24, 48kHz;... (0) flac16, 44kHz;... (0) flac24, 48kHz;... (0)
Date User Comment
03/08/2018 mvernon The "ffp alternate" checksums do NOT match the files at the torrent url:
http://bt.etree.org/details.php?id=570154

The tracks that match the "ffp alternate" pass the wav integrity check, are tagged and have this shntool listing (end of set sbe's):

length expanded size cdr WAVE problems fmt ratio filename
0:47.72 8460188 B --- -- ---xx flac 0.4606 tab2014-01-31mbh0_s1t01.flac
6:14.36 66058316 B --- -- ---xx flac 0.5898 tab2014-01-31mbh0_s1t02.flac
3:01.48 32041340 B --- -- ---xx flac 0.6002 tab2014-01-31mbh0_s1t03.flac
8:39.73 91723340 B --- -- ---xx flac 0.5845 tab2014-01-31mbh0_s1t04.flac
5:47.03 61217900 B --- -- ---xx flac 0.6062 tab2014-01-31mbh0_s1t05.flac
8:45.57 92744108 B --- -- ---xx flac 0.5718 tab2014-01-31mbh0_s1t06.flac
4:13.34 44709212 B --- -- ---xx flac 0.5470 tab2014-01-31mbh0_s1t07.flac
8:45.03 92617100 B --- -- ---xx flac 0.6031 tab2014-01-31mbh0_s1t08.flac
5:46.64 61184972 B --- -- ---xx flac 0.5519 tab2014-01-31mbh0_s1t09.flac
7:25.12 78526268 B --- -- ---xx flac 0.6315 tab2014-01-31mbh0_s1t10.flac
5:22.29 56869052 B --- -- ---xx flac 0.4509 tab2014-01-31mbh0_s1t11.flac
3:55.69 41616332 B --- -- ---xx flac 0.5834 tab2014-01-31mbh0_s1t12.flac
11:22.37 120391164 B -b- -- ---xx flac 0.6205 tab2014-01-31mbh0_s1t13.flac
0:48.70 8631884 B --- -- ---xx flac 0.4428 tab2014-01-31mbh0_s2t01.flac
6:35.35 69760364 B --- -- ---xx flac 0.5992 tab2014-01-31mbh0_s2t02.flac
9:44.48 103130540 B --- -- ---xx flac 0.6126 tab2014-01-31mbh0_s2t03.flac
3:58.50 42100844 B --- -- ---xx flac 0.6134 tab2014-01-31mbh0_s2t04.flac
11:15.01 119072396 B --- -- ---xx flac 0.6060 tab2014-01-31mbh0_s2t05.flac
7:05.50 75087644 B --- -- ---xx flac 0.6212 tab2014-01-31mbh0_s2t06.flac
6:59.70 74076284 B --- -- ---xx flac 0.5785 tab2014-01-31mbh0_s2t07.flac
5:51.28 61982300 B --- -- ---xx flac 0.5555 tab2014-01-31mbh0_s2t08.flac
5:31.11 58414316 B --- -- ---xx flac 0.6148 tab2014-01-31mbh0_s2t09.flac
5:39.70 59964284 B --- -- ---xx flac 0.5951 tab2014-01-31mbh0_s2t10.flac
6:58.33 73812860 B --- -- ---xx flac 0.5754 tab2014-01-31mbh0_s2t11.flac
10:44.37 113688668 B --- -- ---xx flac 0.5984 tab2014-01-31mbh0_s2t12.flac
5:57.59 63113612 B --- -- ---xx flac 0.6090 tab2014-01-31mbh0_s2t13.flac
7:19.35 77522508 B -b- -- ---xx flac 0.6223 tab2014-01-31mbh0_s2t14.flac
174:39.09 1848517796 B 0.5916 (27 files)