Browse Collections Artists Sources   Search Dates

Add Show    List Management    Help


Trey Anastasio 11/29/14
Stage AE, Pittsburgh, PA
Comments Add Comment    Source Collectors    Add to Collection    Add to Want List    History
Source # 131873 Other Sources
Entered by Matt Vernon
Checksums md5 , ffp-alternate
Disc Counts 0 / 0
Media Size
Date Circulated
Date Added
11/30/2014
12/05/2014
Source Summary flac24 Schoeps m934b > CMMT30 > AETA PSP3 > Roland R44; SD Card > Audition 3.0 > CDWave > FLAC; Recorded and Mastered By: tonedeaf 
Source Information - Download Text | Download Zip
Trey Anastasio Band
Stage AE
Pittsburgh, PA
November 29, 2014

*****24bit fileset, not for CDR*****

Duration = 2hr, 49min

01. Intro
02. Corona
03. Sand
04. Valentine
05. Night Speaks To A Woman
06. Pigtail
07. Cayman Review
08. Burn That Bridge
09. Dark and Down
10. Burlap Sack and Pumps
11. Bounce
12. Come As Melody
13. Tuesday
14. ?
15. Speak To Me
16. Gotta Jibboo
17. Gone
18. Liquid Time
19. Traveler
20. Last Tube
21. Plasma
22. Shine
23. Clint Eastwood
24. First Tube
25. (Encore Break)
26. Black Dog

Source: Schoeps m934b > CMMT30 > AETA PSP3 > Roland R44
Conversion: SD Card > Audition 3.0 > CDWave > FLAC
Recorded and Mastered By: tonedeaf ([email protected])

Show Checksums
md5
404c94f8823e6695f0c2ea276bf6f6b2 *tab2014-11-29.m934b.psp3.r44.24bit-t01.flac
ee4334ef22ffdc6176a67da352e82d67 *tab2014-11-29.m934b.psp3.r44.24bit-t02.flac
750cfa4bbdd85e92b7cc65accadac47c *tab2014-11-29.m934b.psp3.r44.24bit-t03.flac
75cab156ae926b6a02a70318e73092a5 *tab2014-11-29.m934b.psp3.r44.24bit-t04.flac
a35fa465a5623591c558944913e22a68 *tab2014-11-29.m934b.psp3.r44.24bit-t05.flac
49deff62aee444a0957899888de64d8b *tab2014-11-29.m934b.psp3.r44.24bit-t06.flac
ec6d0e3601844fade2c2a186177fb644 *tab2014-11-29.m934b.psp3.r44.24bit-t07.flac
c23bb9e0ad53b15d38cf8cd7875d106f *tab2014-11-29.m934b.psp3.r44.24bit-t08.flac
c90267c8e6642c6dbe0435179d63b8ee *tab2014-11-29.m934b.psp3.r44.24bit-t09.flac
84714bb9dfe10179874b6c928dc0afb5 *tab2014-11-29.m934b.psp3.r44.24bit-t10.flac
9ce891189d8806159f6f1ff7f1b9a56d *tab2014-11-29.m934b.psp3.r44.24bit-t11.flac
4d40f72daa861abc7975a283a94bd45d *tab2014-11-29.m934b.psp3.r44.24bit-t12.flac
98cfb8a36b421be1a6f52041e7c5f33c *tab2014-11-29.m934b.psp3.r44.24bit-t13.flac
7578bce81f3ab727e210f1ecefa257b1 *tab2014-11-29.m934b.psp3.r44.24bit-t14.flac
ab580e50c1935c766a130fb0a16ad307 *tab2014-11-29.m934b.psp3.r44.24bit-t15.flac
09ca00856e07a57443c26352c1f48bce *tab2014-11-29.m934b.psp3.r44.24bit-t16.flac
a57c61cda86058adb424e95f42d16ef9 *tab2014-11-29.m934b.psp3.r44.24bit-t17.flac
152344308edac39149e2c963b52a6fb8 *tab2014-11-29.m934b.psp3.r44.24bit-t18.flac
2af37f39c13c6fc87fcac352e48e6a18 *tab2014-11-29.m934b.psp3.r44.24bit-t19.flac
522682c70bd9a32c7c22b40855c8938a *tab2014-11-29.m934b.psp3.r44.24bit-t20.flac
cbeafa21d95c7b89f9a738e6e362b21e *tab2014-11-29.m934b.psp3.r44.24bit-t21.flac
142fe8e054c36ff28bb20bb32d151dde *tab2014-11-29.m934b.psp3.r44.24bit-t22.flac
93f0aa031728e4de457d159db86c8d17 *tab2014-11-29.m934b.psp3.r44.24bit-t23.flac
ee7e38880b56aab6da07896fd5b1f9ef *tab2014-11-29.m934b.psp3.r44.24bit-t24.flac
ab9c560f7422889de412edfd0cd9a3cb *tab2014-11-29.m934b.psp3.r44.24bit-t25.flac
408ec3e543de686825b10c7c4192662d *tab2014-11-29.m934b.psp3.r44.24bit-t26.flac
ffp-alternate
tab2014-11-29.m934b.psp3.r44.24bit-t01.flac:39ee95722d15c7838d79d5effd4c9c5c
tab2014-11-29.m934b.psp3.r44.24bit-t02.flac:be33eaf95b9b72e5710bccc1e1066f68
tab2014-11-29.m934b.psp3.r44.24bit-t03.flac:366726d7c1ccaac7400858ea5d163f13
tab2014-11-29.m934b.psp3.r44.24bit-t04.flac:f8d5718e43390b4c05af14292402fcbe
tab2014-11-29.m934b.psp3.r44.24bit-t05.flac:0a13445bd232dc8caf8b2a26d7c14cfc
tab2014-11-29.m934b.psp3.r44.24bit-t06.flac:7351cc3dabfdce216148cdd960c3ec4a
tab2014-11-29.m934b.psp3.r44.24bit-t07.flac:61aeff4e916287608cd505eea1b14a1b
tab2014-11-29.m934b.psp3.r44.24bit-t08.flac:0c1e79b008db40c80291ebdaa808ac9e
tab2014-11-29.m934b.psp3.r44.24bit-t09.flac:eb3276f1427ab614cb7160a73972e5ba
tab2014-11-29.m934b.psp3.r44.24bit-t10.flac:84bbbe58a299cc6e1b11892ca6bf108b
tab2014-11-29.m934b.psp3.r44.24bit-t11.flac:3a8956498e27c4ba1b6ec2a26b0ec4ac
tab2014-11-29.m934b.psp3.r44.24bit-t12.flac:e896eea00d17d4592098e87bd113c464
tab2014-11-29.m934b.psp3.r44.24bit-t13.flac:bea4ac87626f1c139006a4ef2c449288
tab2014-11-29.m934b.psp3.r44.24bit-t14.flac:8c5005755f75f86d3009918480ed1de2
tab2014-11-29.m934b.psp3.r44.24bit-t15.flac:55892707167b269dfa446bb9f6b1e4d8
tab2014-11-29.m934b.psp3.r44.24bit-t16.flac:55353afb86b844cd255d2fee16911bf5
tab2014-11-29.m934b.psp3.r44.24bit-t17.flac:dd22c1ce90c36dcdf8244bb358f12d37
tab2014-11-29.m934b.psp3.r44.24bit-t18.flac:97935b4a96a80bc03ff66ccb26c85304
tab2014-11-29.m934b.psp3.r44.24bit-t19.flac:4306d9e6793a1ef32d7410d3601a4993
tab2014-11-29.m934b.psp3.r44.24bit-t20.flac:e9785addc7ba8ce82ec5ec39dda62a14
tab2014-11-29.m934b.psp3.r44.24bit-t21.flac:601a455fafb16aab28a13910529e115f
tab2014-11-29.m934b.psp3.r44.24bit-t22.flac:1ca9b6e58ab4fb28f507b90819dc8d79
tab2014-11-29.m934b.psp3.r44.24bit-t23.flac:31a4d65046d8dacb3e04de86e3cb910f
tab2014-11-29.m934b.psp3.r44.24bit-t24.flac:e216fe4421e7b3f5c81a2ff18a4b77eb
tab2014-11-29.m934b.psp3.r44.24bit-t25.flac:7699243ccb6e2cd64d873507f4ed7607
tab2014-11-29.m934b.psp3.r44.24bit-t26.flac:8dddb933397068f5a6b4516e7c13911d

Comments
Add Comment
Other Sources (comments)
flac16 Schoeps m934b... (0) Shure BG4.0 > PMD660 (0)
Date User Comment
03/08/2018 mvernon The "ffp alternate" fingerprint completes the torrent files at this url EXCEPT for the beginning and ending pieces:

http://bt.etree.org/details.php?id=576639

The files that match the ffp alternate pass wav integrity check and are tagged. Their shntool output is:

length expanded size cdr WAVE problems fmt ratio filename
0:57.400 16531244 B cxx -- ---xx flac 0.6592 tab2014-11-29.m934b.psp3.r44.24bit-t01.flac
4:59.467 86246444 B cxx -- ---xx flac 0.7202 tab2014-11-29.m934b.psp3.r44.24bit-t02.flac
10:52.720 187983404 B cxx -- ---xx flac 0.7305 tab2014-11-29.m934b.psp3.r44.24bit-t03.flac
6:06.120 105442604 B cxx -- ---xx flac 0.7291 tab2014-11-29.m934b.psp3.r44.24bit-t04.flac
7:36.333 131424044 B cxx -- ---xx flac 0.7329 tab2014-11-29.m934b.psp3.r44.24bit-t05.flac
5:30.013 95043884 B cxx -- ---xx flac 0.7260 tab2014-11-29.m934b.psp3.r44.24bit-t06.flac
6:14.067 107731244 B cxx -- ---xx flac 0.7217 tab2014-11-29.m934b.psp3.r44.24bit-t07.flac
5:11.640 89752364 B cxx -- ---xx flac 0.7189 tab2014-11-29.m934b.psp3.r44.24bit-t08.flac
7:55.920 137065004 B cxx -- ---xx flac 0.7071 tab2014-11-29.m934b.psp3.r44.24bit-t09.flac
7:31.573 130053164 B cxx -- ---xx flac 0.7322 tab2014-11-29.m934b.psp3.r44.24bit-t10.flac
7:55.040 136811564 B cxx -- ---xx flac 0.7274 tab2014-11-29.m934b.psp3.r44.24bit-t11.flac
4:58.760 86042924 B cxx -- ---xx flac 0.7177 tab2014-11-29.m934b.psp3.r44.24bit-t12.flac
5:20.947 92432684 B cxx -- ---xx flac 0.7363 tab2014-11-29.m934b.psp3.r44.24bit-t13.flac
4:01.240 69477164 B cxx -- ---xx flac 0.6999 tab2014-11-29.m934b.psp3.r44.24bit-t14.flac
5:50.720 101007404 B cxx -- ---xx flac 0.7192 tab2014-11-29.m934b.psp3.r44.24bit-t15.flac
10:53.867 188313644 B cxx -- ---xx flac 0.7198 tab2014-11-29.m934b.psp3.r44.24bit-t16.flac
4:13.227 72929324 B cxx -- ---xx flac 0.7198 tab2014-11-29.m934b.psp3.r44.24bit-t17.flac
6:20.840 109681964 B cxx -- ---xx flac 0.7328 tab2014-11-29.m934b.psp3.r44.24bit-t18.flac
5:12.320 89948204 B cxx -- ---xx flac 0.7231 tab2014-11-29.m934b.psp3.r44.24bit-t19.flac
8:22.787 144802604 B cxx -- ---xx flac 0.7132 tab2014-11-29.m934b.psp3.r44.24bit-t20.flac
10:08.387 175215404 B cxx -- ---xx flac 0.6978 tab2014-11-29.m934b.psp3.r44.24bit-t21.flac
5:55.867 102489644 B cxx -- ---xx flac 0.7224 tab2014-11-29.m934b.psp3.r44.24bit-t22.flac
10:55.920 188905004 B cxx -- ---xx flac 0.6984 tab2014-11-29.m934b.psp3.r44.24bit-t23.flac
7:27.480 128874284 B cxx -- ---xx flac 0.7442 tab2014-11-29.m934b.psp3.r44.24bit-t24.flac
1:51.920 32233004 B cxx -- ---xx flac 0.6552 tab2014-11-29.m934b.psp3.r44.24bit-t25.flac
7:01.350 121348826 B cxx -- ---xx flac 0.7195 tab2014-11-29.m934b.psp3.r44.24bit-t26.flac
169:25.923 2927787046 B 0.7196 (26 files)