Browse Collections Artists Sources   Search Dates

Add Show    List Management    Help


Trey Anastasio 12/05/14
Orpheum Theater, Boston, MA
Comments Add Comment    Source Collectors    Add to Collection    Add to Want List    History
Source # 132128 Other Sources
Entered by Jeff Mitchell
Checksums ffp
Disc Counts 0 / 0
Media Size
Date Circulated
Date Added
12/21/2014
12/26/2014
Source Summary flac16 44.1kHz mics were 50’ LOC back row orchestra; Schoeps mk41>kc5>cmc6>Fostex FR2LE(24bit/48khz); WAV>USB>Macbook Pro>Wave Editor(tracking,fades,resample(izotope)/dither(mbit+)to 16 bit/44.1k)>XAct(FLAC 8,ffp,fix sbe); Taped by Dave Flaschner; Transferred and seeded by Andy Murray 
Source Information - Download Text | Download Zip
Trey Anastasio Band
2014-12-05
Orpheum Theater
Boston, MA

mics were 50’ LOC back row orchestra

Schoeps mk41>kc5>cmc6>Fostex FR2LE(24bit/48khz)

WAV>USB>Macbook Pro>Wave Editor(tracking,fades,resample(izotope)/dither(mbit+)to 16 bit/44.1k)>XAct(FLAC 8,ffp,fix sbe)

Taped by Dave Flaschner

Transferred and seeded by Andy Murray

The memory card ran out and was swapped out during Money, Love and Change so the source is patched with B Crupi’s source which is

AKG/ck63 (din) > nbob actives > Naiant PFA's/Gak right angle adapters > v3 (24/48) > Tascam 680

Set 1:

01. Crowd
02. Speak To Me
03. Cayman Review
04. Magilla
05. Dark and Down
06. Gotta Jibboo
07. It Makes No Difference
08. Valentine
09. Money, Love and Change
10. Pigtail
11. The Land of Nod
12. Sweet and Dandy
13. Bounce

Set 2:

01. crowd
02. Mr. Completely
03. Drifting
04. Burlap Sack and Pumps
05. Greyhound Rising
06. Tube Top Flop
07. Paper Wheels
08. 1977
09. In Rounds
10. Shine
11. Come As Melody
12. Clint Eastwood
13. First Tube
14. encore break

Encore:
15. O-o-h Child

Trey Anastasio (guitar,vocals)
Russ Lawton (drums)
Tony Markellis (bass)
Ray Paczkowski (keys)
Jennifer Hartswick (trumpet, vocals)
Natalie Cressman (trombone, vocals)
James Casey (saxophones, vocals)

length expanded size cdr WAVE problems fmt ratio filename
0:38.49 6818492 B --- -- ----- wav 1.0000 tab2014-12-05_mk41_1644_d1t01.wav
4:36.03 48693500 B --- -- ----- wav 1.0000 tab2014-12-05_mk41_1644_d1t02.wav
6:16.51 66446396 B --- -- ----- wav 1.0000 tab2014-12-05_mk41_1644_d1t03.wav
3:06.52 32932748 B --- -- ----- wav 1.0000 tab2014-12-05_mk41_1644_d1t04.wav
7:56.12 83994668 B --- -- ----- wav 1.0000 tab2014-12-05_mk41_1644_d1t05.wav
10:58.10 116094764 B --- -- ----- wav 1.0000 tab2014-12-05_mk41_1644_d1t06.wav
6:16.57 66460508 B --- -- ----- wav 1.0000 tab2014-12-05_mk41_1644_d1t07.wav
6:00.66 63659276 B --- -- ----- wav 1.0000 tab2014-12-05_mk41_1644_d1t08.wav
9:46.53 103495100 B --- -- ----- wav 1.0000 tab2014-12-05_mk41_1644_d1t09.wav
6:08.15 64950524 B --- -- ----- wav 1.0000 tab2014-12-05_mk41_1644_d1t10.wav
3:30.06 37058156 B --- -- ----- wav 1.0000 tab2014-12-05_mk41_1644_d1t11.wav
4:52.40 51602924 B --- -- ----- wav 1.0000 tab2014-12-05_mk41_1644_d1t12.wav
8:01.19 84893132 B --- -- ----- wav 1.0000 tab2014-12-05_mk41_1644_d1t13.wav
1:00.03 10591100 B --- -- ----- wav 1.0000 tab2014-12-05_mk41_1644_d2t01.wav
14:06.13 149265020 B --- -- ----- wav 1.0000 tab2014-12-05_mk41_1644_d2t02.wav
6:03.51 64153196 B --- -- ----- wav 1.0000 tab2014-12-05_mk41_1644_d2t03.wav
8:30.66 90119276 B --- -- ----- wav 1.0000 tab2014-12-05_mk41_1644_d2t04.wav
6:02.67 64014428 B --- -- ----- wav 1.0000 tab2014-12-05_mk41_1644_d2t05.wav
4:15.70 45146684 B --- -- ----- wav 1.0000 tab2014-12-05_mk41_1644_d2t06.wav
5:51.20 61963484 B --- -- ----- wav 1.0000 tab2014-12-05_mk41_1644_d2t07.wav
4:17.30 45405404 B --- -- ----- wav 1.0000 tab2014-12-05_mk41_1644_d2t08.wav
6:39.49 70498892 B --- -- ----- wav 1.0000 tab2014-12-05_mk41_1644_d2t09.wav
5:58.24 63207692 B --- -- ----- wav 1.0000 tab2014-12-05_mk41_1644_d2t10.wav
5:44.63 60829820 B --- -- ----- wav 1.0000 tab2014-12-05_mk41_1644_d2t11.wav
9:31.02 100729148 B --- -- ----- wav 1.0000 tab2014-12-05_mk41_1644_d2t12.wav
7:28.44 79130732 B --- -- ----- wav 1.0000 tab2014-12-05_mk41_1644_d2t13.wav
2:31.04 26645852 B --- -- ----- wav 1.0000 tab2014-12-05_mk41_1644_d2t14.wav
5:34.14 58950572 B --- -- ----- wav 1.0000 tab2014-12-05_mk41_1644_d2t15.wav
171:44.53 1817751488 B 1.0000 (28 files)
Show Checksums
ffp
tab2014-12-05_mk41_1644_d1t01.flac:67ce2c1eb88c39fab00794bab63939eb
tab2014-12-05_mk41_1644_d1t02.flac:fe887497915cac9444b87a6758cca722
tab2014-12-05_mk41_1644_d1t03.flac:356a1e9a733e5553ac7178459d4a7a06
tab2014-12-05_mk41_1644_d1t04.flac:b781d05e036c3e5569cdb1c9d0375bfe
tab2014-12-05_mk41_1644_d1t05.flac:070e2da7c3fe33f74ef18e986647c3ee
tab2014-12-05_mk41_1644_d1t06.flac:f3452f27457eab3dc56e30e04991bd1c
tab2014-12-05_mk41_1644_d1t07.flac:c2a6f9a531741094ed1d3ba50653efc2
tab2014-12-05_mk41_1644_d1t08.flac:313c86ec62fae3eeee33fcf814c33ca4
tab2014-12-05_mk41_1644_d1t09.flac:e89139a26491d34c51e4f5ddf94e3ad4
tab2014-12-05_mk41_1644_d1t10.flac:415c82271d89bd5e34f31034f275cc54
tab2014-12-05_mk41_1644_d1t11.flac:1f0c3faea75d7d38385c8877293f50ba
tab2014-12-05_mk41_1644_d1t12.flac:48e819b05cb5de94150ecc20a770d9a0
tab2014-12-05_mk41_1644_d1t13.flac:481cdf484521399edc3118bba387a4c1
tab2014-12-05_mk41_1644_d2t01.flac:0082cc2d4713af460c02f10a22a983ee
tab2014-12-05_mk41_1644_d2t02.flac:52039c59c7822a86b6171456b18c94ee
tab2014-12-05_mk41_1644_d2t03.flac:f039f6beca1ae192def8ffc003a22eaa
tab2014-12-05_mk41_1644_d2t04.flac:99a4d6adcf5660db05190ba2642e59b4
tab2014-12-05_mk41_1644_d2t05.flac:376cc0413327bace5896c30660c391cc
tab2014-12-05_mk41_1644_d2t06.flac:e86d657c52ac5b6d4266e4621bca56e6
tab2014-12-05_mk41_1644_d2t07.flac:20170fae93bac6a578ebb3373902c00b
tab2014-12-05_mk41_1644_d2t08.flac:844663b161efb74de0ab4740ad873c7e
tab2014-12-05_mk41_1644_d2t09.flac:a36a9e5811c3f33f6d7cbb17f8e1cc3d
tab2014-12-05_mk41_1644_d2t10.flac:f426d362b2f67b2c5abcbe284eba4c72
tab2014-12-05_mk41_1644_d2t11.flac:2f0f871e7c5e40df9d6b6ace7366f633
tab2014-12-05_mk41_1644_d2t12.flac:49639d2f091d47af3fccda549e57e79f
tab2014-12-05_mk41_1644_d2t13.flac:083f077a19c6ef2889e37ea9efbc308f
tab2014-12-05_mk41_1644_d2t14.flac:ea057c8555e3ddc5c4c89d359385c413
tab2014-12-05_mk41_1644_d2t15.flac:4dda0653a93532a2be33c2c8ad77b641

Comments
Add Comment
Other Sources (comments)
flac16... (0) flac24... (0) flac16... (0) flac24 48kHz mics... (0) flac16 AKG... (0)
Date User Comment