Browse Collections Artists Sources   Search Dates

Add Show    List Management    Help


Trey Anastasio 12/06/14
The Orpheum Theatre, Boston, MA
Comments Add Comment    Source Collectors    Add to Collection    Add to Want List    History
Source # 132130 Other Sources
Entered by Matt Vernon
Checksums flac-md5 , ffp-alternate
Disc Counts 0 / 0
Media Size
Date Circulated
Date Added
12/24/2014
12/26/2014
Source Summary flac16 Orch, Row K; Schoeps MK4's>Schoeps CMR's>Naiant PFA>Edirol UA-5 (BM2p+)>Edirol R-09HR; SDHC>Adobe Audition>Cakewalk pyro>.WAV>FLAC (5) 
Source Information - Download Text | Download Zip
Trey Anastasio Band
Orpheum Theatre
Boston, MA
December 6, 2014

Source: Schoeps MK4's>Schoeps CMR's>Naiant PFA>Edirol UA-5 (BM2p+)>Edirol R-09HR
Transfer: SDHC>Adobe Audition>Cakewalk pyro>.WAV>FLAC (5)
Location: Orch, Row K

Set 1

Sometime After Sunset
Burn That Bridge
Alive Again
Sweet Dreams
Mozambique
Night Speaks To A Woman
Wherever You Find It
Small Axe
Last Tube
Frost
Traveler
Tuesday

Set 2

Simple Twist Up Dave
The Song
Curlews Call
Alaska
Spin
Plasma
Goodbye Head
Architect
Sand
Ether Sunday
Push On 'Til The Day
Black Dog


Show Checksums
flac-md5
b1b60a5e34ceeac69b541877076f80b0 *TAB20141206S01T01.flac
c7b06c9284888306b338a2a6690dcf4c *TAB20141206S01T02.flac
fa5f3cbb98a421aebcd681ebfdea086d *TAB20141206S01T03.flac
5fadc081c086f2d7279129a264ef2e57 *TAB20141206S01T04.flac
9045b5f9bf26fd97a5bf6eb33dd5682f *TAB20141206S01T05.flac
ae2e9cfa3b40c9cbd1a066a1f283779f *TAB20141206S01T06.flac
a2f4da82e63316d30c35a4a612ad697c *TAB20141206S01T07.flac
6b80b1fa0736b279c35ace1a45e26d9f *TAB20141206S01T08.flac
84f969eddbd8311b04ccd63edb86f61b *TAB20141206S01T09.flac
cf981e00d8a7f875881ce590ff8e11f9 *TAB20141206S01T10.flac
a8e9d0566cbd9eb02ce77d797c514f41 *TAB20141206S01T11.flac
950b5a63550217f51d10a7b0f22382a0 *TAB20141206S01T12.flac
4a4290e6ffa36c59f2b0d59765cc1754 *TAB20141206S02T01.flac
e202f5d17329e626791a1bebb4b8b2ce *TAB20141206S02T02.flac
0466bdef2e289b201a8f4de10f79f81f *TAB20141206S02T03.flac
a678eed85c43713f2e01fac589e82fcd *TAB20141206S02T04.flac
8376bb1b81b6002be46e7683a5da3683 *TAB20141206S02T05.flac
707ba05205ed946caac520dea3a90f6b *TAB20141206S02T06.flac
d5b0eb5006dc255fdc59940922238e2e *TAB20141206S02T07.flac
57b98835bf615c7ae97ba8b1919734e4 *TAB20141206S02T08.flac
11a1491c6066a2701e637d96ca1fb5fe *TAB20141206S02T09.flac
572f9d2d536fbc9f447f70b15bd5cde9 *TAB20141206S02T10.flac
99d0095b67c939dde6fc13c70481b77e *TAB20141206S02T11.flac
46885f8e4a96b3a760c69e1d2577671e *TAB20141206S02T12.flac
ffp-alternate
TAB20141206S01T01.flac:6247534c4988a2248f421408abc5c393
TAB20141206S01T02.flac:24db2c92e83d9a69537a86edb6f993fa
TAB20141206S01T03.flac:192b4895b860c1347b1a7f3e184fd38b
TAB20141206S01T04.flac:6217cf46130231fd7a1b0165f6bccffc
TAB20141206S01T05.flac:0d729da61ffad8601c021df211b8d351
TAB20141206S01T06.flac:412c2efa0e8a73182a24461ffb6fdf02
TAB20141206S01T07.flac:fee54362bcd25113e8c04d1885495cc2
TAB20141206S01T08.flac:1b1e0a94c408564627e6e10a3a088a72
TAB20141206S01T09.flac:26f95ca5f2947ac37b698a00eeb81a5f
TAB20141206S01T10.flac:43e0185e4a3f77bf29de59d1777227ea
TAB20141206S01T11.flac:0519ad680c37367208a596db522abde1
TAB20141206S01T12.flac:de4dc2f521e783f44739b297fa706708
TAB20141206S02T01.flac:b577d90af2c105feb60c9b863fdacd9a
TAB20141206S02T02.flac:015424cd80fd5ac5e4e3180e3ca99e04
TAB20141206S02T03.flac:bec587c1bc4028dd5ddf53a658ad4f56
TAB20141206S02T04.flac:7f5067b217376b1134f79c9dcbaab31d
TAB20141206S02T05.flac:c5241d8eec4ff5a8a734fd0ca06a6f77
TAB20141206S02T06.flac:0cf9cfab2589568e2c8a21dd7010934b
TAB20141206S02T07.flac:44481662dcce62e665e3b1586a6c973e
TAB20141206S02T08.flac:a40ebb851eeea3a52b2d37e95a73ce08
TAB20141206S02T09.flac:1ea4a332ea9651b98878cea3135c39fe
TAB20141206S02T10.flac:88a03974fd2964be6f15b605e1d2d997
TAB20141206S02T11.flac:43304df9313b247435e9eefb6f02160e
TAB20141206S02T12.flac:6c834ea4911b3b7bdc95ac375e511cfa

Comments
Add Comment
Other Sources (comments)
flac24 mics were DIN... (0) flac16 mics were DIN... (0) flac16 Recorded From... (0) flac16 44kHz... (0)
Date User Comment
03/08/2018 mvernon The "ffp alternate" fingerprint complete the files for the torrent at the following url except for the beginning and ending pieces on each track.
http://bt.etree.org/details.php?id=577094
The files that match the ffp alternate finger prints pass the wav integrity check and are tagged and have the following shntool output:

length expanded size cdr WAVE problems fmt ratio filename
5:55.06 62636156 B --- -- ---xx flac 0.6161 TAB20141206S01T01.flac
6:27.17 68306828 B --- -- ---xx flac 0.6102 TAB20141206S01T02.flac
8:41.72 92073788 B --- -- ---xx flac 0.5857 TAB20141206S01T03.flac
5:43.70 60669884 B --- -- ---xx flac 0.6108 TAB20141206S01T04.flac
4:22.42 46315628 B --- -- ---xx flac 0.6063 TAB20141206S01T05.flac
10:04.16 106583276 B --- -- ---xx flac 0.6213 TAB20141206S01T06.flac
6:11.17 65484428 B --- -- ---xx flac 0.5729 TAB20141206S01T07.flac
3:13.65 34198124 B --- -- ---xx flac 0.5819 TAB20141206S01T08.flac
9:47.50 103664444 B --- -- ---xx flac 0.6048 TAB20141206S01T09.flac
4:56.58 52350860 B --- -- ---xx flac 0.5621 TAB20141206S01T10.flac
4:26.27 46985948 B --- -- ---xx flac 0.6277 TAB20141206S01T11.flac
5:53.45 62375084 B --- -- ---xx flac 0.6328 TAB20141206S01T12.flac
8:20.47 88310588 B --- -- ---xx flac 0.5940 TAB20141206S02T01.flac
5:51.72 62085788 B --- -- ---xx flac 0.5670 TAB20141206S02T02.flac
8:52.30 93915404 B --- -- ---xx flac 0.5913 TAB20141206S02T03.flac
8:46.00 92786444 B --- -- ---xx flac 0.5766 TAB20141206S02T04.flac
7:05.37 75057068 B --- -- ---xx flac 0.5818 TAB20141206S02T05.flac
10:10.15 107639324 B --- -- ---xx flac 0.5547 TAB20141206S02T06.flac
6:47.50 71912444 B --- -- ---xx flac 0.5884 TAB20141206S02T07.flac
5:39.01 59801996 B --- -- ---xx flac 0.5597 TAB20141206S02T08.flac
9:08.31 96740156 B --- -- ---xx flac 0.6016 TAB20141206S02T09.flac
6:11.14 65477372 B --- -- ---xx flac 0.5322 TAB20141206S02T10.flac
10:22.66 109876076 B --- -- ---xx flac 0.6080 TAB20141206S02T11.flac
6:39.61 70527116 B --- -- ---xx flac 0.6145 TAB20141206S02T12.flac
169:40.09 1795774224 B 0.5920 (24 files)