Browse Collections Artists Sources   Search Dates

Add Show    List Management    Help


Tedeschi Trucks Band 07/26/13
Seaside Park, Bridgeport, CT
Comments Add Comment    Source Collectors    Add to Collection    Add to Want List    History
Source # 133100 Other Sources
Entered by Steve Blanchard
Checksums ffp
Disc Counts 0 / 0
Media Size
Date Circulated
Date Added
07/28/2013
05/26/2015
Source Summary Source: Schoeps CCM4V'S(din)>Lunatec V2>Benchmark AD2K> Sound Devices 722 (24/48) -- DSP: Sound Devices 722>Sound Forge 10.0>CD Wave>flac(16) 
Source Information - Download Text | Download Zip
Tedeschi Trucks Band
Gathering Of The Vibes
Seaside Park
Bridgeport, Connecticut
7/26/2013

Source: Schoeps CCM4V'S(din)>Lunatec V2>Benchmark AD2K>
Sound Devices 722 (24/48)
SOB/OTS/DRFC/KFC/ZFC/AARP 12 1/2' High
DSP: Sound Devices 722>Sound Forge 10.0>CD Wave>flac(16)
Recorded By: Z-Man
Seeded By: Z-Man

Disc I

01 Introduction By Wavy Gravy
02 Misunderstood
03 Do I Look Worried
04 It's So Heavy
05 I've Got A Man
06 The Sky Is Cryin'
07 Jam >
08 *Love Has Something Else To Say
09 Midnight In Harlem
10 Band Introdctions

Disc II

01 Part Of Me
02 Wah Wah
03 Angel From Montgomery >
04 Sugaree >
05 Angel From Montgomery
06 Space Jam >
07 ?
08 Get What You Deserve
09 Bound For Glory

* With Bill Evans On Tenor Saxophone

ttb2013-07-26d01t01.flac:fb1f7c036fbc519830dc8c54d8305796
ttb2013-07-26d01t02.flac:fba7178585f0e3dcc579eba9c3a47af1
ttb2013-07-26d01t03.flac:2d44ad2ef18f54fad9feff097d9a657f
ttb2013-07-26d01t04.flac:c4805bc9252017444f7197d03493f5ee
ttb2013-07-26d01t05.flac:fb42efb4faa6b0955ae6d2004b1a6242
ttb2013-07-26d01t06.flac:c074da675108f2ba4fd7ad338ad4dea3
ttb2013-07-26d01t07.flac:62e869eb05c6d61cb60f5767e1bf25bf
ttb2013-07-26d01t08.flac:171765d8c377ba43a72e1e63ee8a7734
ttb2013-07-26d01t09.flac:e3fb4da175c0af63fb0445caa7fb8ee6
ttb2013-07-26d01t10.flac:8c3fe5764c8552de6d0b634aa24e01ff
ttb2013-07-26d02t01.flac:032e46814ddbb2f10f6ff46039b7a76e
ttb2013-07-26d02t02.flac:cfa46aee0c98a1feec7f47efc97a9d2f
ttb2013-07-26d02t03.flac:ca14102d727d43c4825eb3fec0b00e14
ttb2013-07-26d02t04.flac:3247c4ddeddf47cb8e7050d816086054
ttb2013-07-26d02t05.flac:e0331558b0312d4fbf9b316f120ae188
ttb2013-07-26d02t06.flac:1787ce6c1c887798429b589a5df3d535
ttb2013-07-26d02t07.flac:4056ff555dd7ed25fe9bf7b7407f17c5
ttb2013-07-26d02t08.flac:c5dd92aa63703fc79156b82e55ecc85d
ttb2013-07-26d02t09.flac:a7c8908da9345d7debdd2ca0da49071f

length     expanded size    cdr  WAVE problems  fmt   ratio  filename
     1:52.39       19848572 B   ---   --   ---xx   flac  0.3202  ttb2013-07-26d01t01.flac
     6:33.17       69365228 B   ---   --   ---xx   flac  0.5008  ttb2013-07-26d01t02.flac
     5:31.41       58484876 B   ---   --   ---xx   flac  0.4803  ttb2013-07-26d01t03.flac
     5:31.41       58484876 B   ---   --   ---xx   flac  0.4209  ttb2013-07-26d01t04.flac
     6:49.05       72159404 B   ---   --   ---xx   flac  0.4931  ttb2013-07-26d01t05.flac
     8:55.34       94454012 B   ---   --   ---xx   flac  0.4703  ttb2013-07-26d01t06.flac
     3:08.24       33219692 B   ---   --   ---xx   flac  0.4164  ttb2013-07-26d01t07.flac
     7:35.26       80323196 B   ---   --   ---xx   flac  0.5093  ttb2013-07-26d01t08.flac
     9:23.16       99350876 B   ---   --   ---xx   flac  0.4117  ttb2013-07-26d01t09.flac
     1:04.73       11461340 B   ---   --   ---xx   flac  0.3954  ttb2013-07-26d01t10.flac
     4:57.10       52414364 B   ---   --   ---xx   flac  0.4727  ttb2013-07-26d02t01.flac
     5:28.07       57875708 B   ---   --   ---xx   flac  0.4972  ttb2013-07-26d02t02.flac
     5:28.31       57932156 B   ---   --   ---xx   flac  0.3804  ttb2013-07-26d02t03.flac
     2:00.14       21200972 B   ---   --   ---xx   flac  0.4636  ttb2013-07-26d02t04.flac
     1:40.67       17797628 B   ---   --   ---xx   flac  0.3636  ttb2013-07-26d02t05.flac
     1:17.51       13702796 B   ---   --   ---xx   flac  0.4439  ttb2013-07-26d02t06.flac
    10:03.19      106413932 B   ---   --   ---xx   flac  0.4893  ttb2013-07-26d02t07.flac
     4:52.20       51555884 B   ---   --   ---xx   flac  0.5189  ttb2013-07-26d02t08.flac
    13:19.24      141000092 B   ---   --   ---xx   flac  0.4608  ttb2013-07-26d02t09.flac
   105:32.34     1117045604 B                            0.4617  (19 files)


















Show Checksums
ffp
ttb2013-07-26d01t01.flac:fb1f7c036fbc519830dc8c54d8305796
ttb2013-07-26d01t02.flac:fba7178585f0e3dcc579eba9c3a47af1
ttb2013-07-26d01t03.flac:2d44ad2ef18f54fad9feff097d9a657f
ttb2013-07-26d01t04.flac:c4805bc9252017444f7197d03493f5ee
ttb2013-07-26d01t05.flac:fb42efb4faa6b0955ae6d2004b1a6242
ttb2013-07-26d01t06.flac:c074da675108f2ba4fd7ad338ad4dea3
ttb2013-07-26d01t07.flac:62e869eb05c6d61cb60f5767e1bf25bf
ttb2013-07-26d01t08.flac:171765d8c377ba43a72e1e63ee8a7734
ttb2013-07-26d01t09.flac:e3fb4da175c0af63fb0445caa7fb8ee6
ttb2013-07-26d01t10.flac:8c3fe5764c8552de6d0b634aa24e01ff
ttb2013-07-26d02t01.flac:032e46814ddbb2f10f6ff46039b7a76e
ttb2013-07-26d02t02.flac:cfa46aee0c98a1feec7f47efc97a9d2f
ttb2013-07-26d02t03.flac:ca14102d727d43c4825eb3fec0b00e14
ttb2013-07-26d02t04.flac:3247c4ddeddf47cb8e7050d816086054
ttb2013-07-26d02t05.flac:e0331558b0312d4fbf9b316f120ae188
ttb2013-07-26d02t06.flac:1787ce6c1c887798429b589a5df3d535
ttb2013-07-26d02t07.flac:4056ff555dd7ed25fe9bf7b7407f17c5
ttb2013-07-26d02t08.flac:c5dd92aa63703fc79156b82e55ecc85d
ttb2013-07-26d02t09.flac:a7c8908da9345d7debdd2ca0da49071f

Comments
Add Comment
Other Sources (comments)
Source: MBHO603/ka200n... (0) Source 1 (~70%):... (0) Source: Busman BSC-1... (0)
Date User Comment