Browse Collections Artists Sources   Search Dates

Add Show    List Management    Help


Ratdog 06/09/06
Sonoma County Fairgrounds, Santa Rosa, CA
Comments Add Comment    Source Collectors    Add to Collection    Add to Want List    History
Source # 133321 Other Sources
Entered by ziko
Checksums md5 , ffp
Disc Counts 0 / 0
Media Size Compressed: 828.99 MB (869259018 bytes)
Date Circulated
Date Added
06/09/2015
06/10/2015
Source Summary Recording Info: SBD -> Alesis HD24 -> WAV (24bit/48k) Mastering Info: WAV (24bit/48k) -> Samplitude Professional v11.1.1 -> FLAC/16 (2 Discs Audio / 1 DVD FLAC) Recorded and Mastered By Charlie Miller 
Source Information - Download Text | Download Zip
Ratdog - June 9, 2006
Grace Pavilion - Harmony Festival
Sonoma County Fairgrounds - Santa Rosa, CA

Recording Info:
SBD -> Alesis HD24 -> WAV (24bit/48k)

Mastering Info:
WAV (24bit/48k) -> Samplitude Professional v11.1.1 -> FLAC/16
(2 Discs Audio / 1 DVD FLAC)

Recorded and Mastered By Charlie Miller
[email protected]
June 9, 2015

Notes:
-- Disc change is seamless
-- Way To Go Home dedicated to Vince Welnick
-- Way To Go Home with The Flying Other Brothers
-- Stuff with DJ Logic

Setlist:
d1t01 - Jam ->
d1t02 - Help On The Way ->
d1t03 - Slipknot! ->
d1t04 - She Says ->
d1t05 - Liberty
d1t06 - Jam ->
d1t07 - Jack Straw ->
d1t08 - Book Of Rules ->
d1t09 - Dark Star
d1t10 - Big Iron
d2t01 - Victim Or The Crime ->
d2t02 - Way To Go Home ->
d2t03 - Eyes Of The World ->
d2t04 - Stuff ->
d2t05 - Come Together ->
d2t06 - Two Djinn ->
d2t07 - Franklin's Tower

Encore:
d2t08 - Ripple


SHNTOOL OUTPUT:
    length     expanded size    cdr  WAVE problems  fmt   ratio  filename
     3:41.06       38998556 B   ---   --   ---xx   flac  0.5420  ratdog2006-06-09d1t01.flac
     5:52.62       62238668 B   ---   --   ---xx   flac  0.5742  ratdog2006-06-09d1t02.flac
     4:57.13       52421420 B   ---   --   ---xx   flac  0.5779  ratdog2006-06-09d1t03.flac
     8:14.33       87219260 B   ---   --   ---xx   flac  0.5808  ratdog2006-06-09d1t04.flac
     7:30.13       79410620 B   ---   --   ---xx   flac  0.5960  ratdog2006-06-09d1t05.flac
     3:03.55       32410604 B   ---   --   ---xx   flac  0.4981  ratdog2006-06-09d1t06.flac
    10:21.64      109694972 B   ---   --   ---xx   flac  0.5790  ratdog2006-06-09d1t07.flac
     4:19.28       45753500 B   ---   --   ---xx   flac  0.5516  ratdog2006-06-09d1t08.flac
    16:38.15      176082524 B   ---   --   ---xx   flac  0.5438  ratdog2006-06-09d1t09.flac
     6:44.54       71392652 B   ---   --   ---xx   flac  0.5540  ratdog2006-06-09d1t10.flac
     9:45.37      103281068 B   ---   --   ---xx   flac  0.5640  ratdog2006-06-09d2t01.flac
     6:42.03       70919900 B   ---   --   ---xx   flac  0.5844  ratdog2006-06-09d2t02.flac
    16:46.12      177486668 B   ---   --   ---xx   flac  0.5884  ratdog2006-06-09d2t03.flac
     5:51.12       61944668 B   ---   --   ---xx   flac  0.5821  ratdog2006-06-09d2t04.flac
     6:33.74       69499292 B   ---   --   ---xx   flac  0.5746  ratdog2006-06-09d2t05.flac
    10:14.28      108375500 B   ---   --   ---xx   flac  0.5820  ratdog2006-06-09d2t06.flac
    12:04.21      127763036 B   ---   --   ---xx   flac  0.5649  ratdog2006-06-09d2t07.flac
     5:05.63       53950220 B   ---   --   ---xx   flac  0.5289  ratdog2006-06-09d2t08.flac
   144:26.68     1528843128 B                            0.5686  (18 files)


Show Checksums
md5
e20e90f4c3d6facc9f999f10104dae3a *ratdog2006-06-09d1t01.flac
dbceb9619c35c9099fd9c52ba33d3ed2 *ratdog2006-06-09d1t02.flac
f6e5e8c8767be035ca6f4b6ecc69a39a *ratdog2006-06-09d1t03.flac
05c1166458bca0d129fe981f29af40c6 *ratdog2006-06-09d1t04.flac
ef1600b61fee44e10108b5c2e1b12395 *ratdog2006-06-09d1t05.flac
7b3eccbf4d0a53532df19bee4597c959 *ratdog2006-06-09d1t06.flac
21f559fa604da5835bc0160b1dda620c *ratdog2006-06-09d1t07.flac
884de8a6b1635d9e97c08b3bd98c0b3d *ratdog2006-06-09d1t08.flac
941ae81396c7a7de259dcd90eda777c4 *ratdog2006-06-09d1t09.flac
5b29db76f93badcb35267ca5c06eb491 *ratdog2006-06-09d1t10.flac
911998e5a1819102507ed0574f8908e8 *ratdog2006-06-09d2t01.flac
a0310323360998bdecc0e933fa097c5f *ratdog2006-06-09d2t02.flac
ed35c324f7dd4c690bc171212e466dff *ratdog2006-06-09d2t03.flac
1f481dc3d01cb41518858afdbd68b7f4 *ratdog2006-06-09d2t04.flac
c75cc0f773cb06b0350f98f967680c9a *ratdog2006-06-09d2t05.flac
af98d3fb771a746fb4cf2d15a523cffc *ratdog2006-06-09d2t06.flac
1397c226021579823bc5eaddc804255a *ratdog2006-06-09d2t07.flac
a170e7337b19dc53121bd32c4f190b8f *ratdog2006-06-09d2t08.flac
ffp
ratdog2006-06-09d1t01.flac:71c2d8d5bb8e6ade09bc927a75a62308
ratdog2006-06-09d1t02.flac:44e42feb9618824ea50af3e9a62614e2
ratdog2006-06-09d1t03.flac:a76902ebfda2b40e824ea8fa25185ffb
ratdog2006-06-09d1t04.flac:20d3feea0a5247f5a3307bab3790e43c
ratdog2006-06-09d1t05.flac:f47f497b71b93294a1ce30113a3bd74b
ratdog2006-06-09d1t06.flac:aa4203b3c5ea94506e482824b2b299a9
ratdog2006-06-09d1t07.flac:1d6a1cbd4337d40e7c62a8bd15d7dd28
ratdog2006-06-09d1t08.flac:7b67ccb808d595e5774429559f8f46b1
ratdog2006-06-09d1t09.flac:de78c0a764e757cabf9ec58ac8a5bf3b
ratdog2006-06-09d1t10.flac:93036ed17bbaa645868b093903da7df5
ratdog2006-06-09d2t01.flac:74ebe3eb82005c5ac221eba1a93f22f9
ratdog2006-06-09d2t02.flac:53f568fb9a822af2321f82b90aa9d919
ratdog2006-06-09d2t03.flac:22d0e2ad55afae8259c32ec3de5337cd
ratdog2006-06-09d2t04.flac:02dab01f1a6c0f3d9b88e1d1173c4a4e
ratdog2006-06-09d2t05.flac:7bd3f14b2667a1edcd9c06008ca6cb76
ratdog2006-06-09d2t06.flac:4521c73c01076ede7bc3be45aa1f6122
ratdog2006-06-09d2t07.flac:fc0ed004c11c4da577a04d4850e8a0ee
ratdog2006-06-09d2t08.flac:8c841a428af3fdf597141d9f98eb2190

Comments
Add Comment
Other Sources (comments)
flac 16; Source:... (1) AUD > DAT > FLAC > CD > EAC... (0)
Date User Comment