Browse Collections Artists Sources   Search Dates

Add Show    List Management    Help


Tedeschi Trucks Band 12/12/14
House of Blues, Boston, MA
Comments Add Comment    Source Collectors    Add to Collection    Add to Want List    History
Source # 133576 Other Sources
Entered by
Checksums ffp
Disc Counts 0 / 0
Media Size
Date Circulated
Date Added
12/13/2014
06/20/2015
Source Summary DPA 4011 > V3 Digital > R44 (24/96)
SDHC Card > Sound Forge Pro 10.0 (Normalize, fades, resample iZotope 64-Bit SRC, dither iZotope MBIT+ Dither) > CD Wav (tracking) > TLH > Flac (level 8)
DIN/relatively DFC/approx. 8' high
Tags added in Foobar2000
Taped and Transferred by Brian V. 
Source Information - Download Text | Download Zip
Tedeschi Trucks Band
2014-12-12
House of Blues
Boston, MA

DPA 4011 > V3 Digital > R44 (24/96)
SDHC Card > Sound Forge Pro 10.0 (Normalize, fades, resample iZotope 64-Bit SRC, dither iZotope MBIT+ Dither) > CD Wav (tracking) > TLH > Flac (level 8)
DIN/relatively DFC/approx. 8' high
Tags added in Foobar2000

Taped and Transferred by Brian V.


01. Intro
02. Are you Ready >
03. Made Up Mind
04. Do I Look Worried
05. Midnight in Harlem
06. Let Me Get By
07. Part of Me
08. Don't Miss Me
09. Idle Wind
10. Keep Your Lamp Trimmed and Burning ^
11. Shelter ^
12. There's a Break in the Road
13. Anyhow
14. I Pity The Fool
15. Keep On Growing
16. The Storm
17. encore break
18. Night Time Is The Right Time
19. Soulive collaboration intro
20. Living In The Palace Of The King #

^ acoustic
# with members of Soulive

*Support Bands That Allow Taping/Trading***

flac fingerprints
ttb2014-12-12s1t01.flac:88372907f785586cfa11268259d79749
ttb2014-12-12s1t02.flac:d2853668bbc541b4dcbe8f8a5e2c3f4d
ttb2014-12-12s1t03.flac:931e951c8a84dcf0ed28461d60258e96
ttb2014-12-12s1t04.flac:9cf9521ae5a2fe7b5d4149e0a76f1474
ttb2014-12-12s1t05.flac:155040c924084afa6943a9db173f8921
ttb2014-12-12s1t06.flac:80c8e90b736b7dbbf9b00d110db12701
ttb2014-12-12s1t07.flac:9665801dccee5e4856e22055c9b1357d
ttb2014-12-12s1t08.flac:e84374ae1fbb877a8543b321ccedc99b
ttb2014-12-12s1t09.flac:c98e9f71df00857fffc53be4b8156ad4
ttb2014-12-12s1t10.flac:9906709676db672ace17448589a7907e
ttb2014-12-12s1t11.flac:e235d7191d2e86c46638711d3d2717ba
ttb2014-12-12s1t12.flac:5d9bf75213c680221f1ae08515a63a23
ttb2014-12-12s1t13.flac:e32548adfc156577fcac22665bb2e31b
ttb2014-12-12s1t14.flac:319abc8533c2efee24411e400639876e
ttb2014-12-12s1t15.flac:4d486a239180d6a3a479ec628112e3c3
ttb2014-12-12s1t16.flac:6db30b59d3c5f55866a77ded99bd88a7
ttb2014-12-12s1t17.flac:db43606dcbb8dd4166ffbff22de4df0a
ttb2014-12-12s1t18.flac:68cb855189650e49dc26030531ec884b
ttb2014-12-12s1t19.flac:f658faaa92b9c957ab27b1111aea4e68
ttb2014-12-12s1t20.flac:d339017db120e09c5afc422714a03d74

shntool output
    length     expanded size    cdr  WAVE problems  fmt   ratio  filename
     0:30.57        5426108 B   ---   --   ---xx   flac  0.4690  ttb2014-12-12s1t01.flac
     2:30.22       26511788 B   ---   --   ---xx   flac  0.6077  ttb2014-12-12s1t02.flac
     6:21.13       67239020 B   ---   --   ---xx   flac  0.5999  ttb2014-12-12s1t03.flac
     5:34.66       59072876 B   ---   --   ---xx   flac  0.6122  ttb2014-12-12s1t04.flac
     9:42.22      102716588 B   ---   --   ---xx   flac  0.5501  ttb2014-12-12s1t05.flac
     6:49.04       72157052 B   ---   --   ---xx   flac  0.6019  ttb2014-12-12s1t06.flac
     5:02.08       53291660 B   ---   --   ---xx   flac  0.6094  ttb2014-12-12s1t07.flac
     7:56.23       84020540 B   ---   --   ---xx   flac  0.5669  ttb2014-12-12s1t08.flac
    12:29.19      132168332 B   ---   --   ---xx   flac  0.5816  ttb2014-12-12s1t09.flac
     4:55.45       52143884 B   ---   --   ---xx   flac  0.4778  ttb2014-12-12s1t10.flac
     3:50.35       40654364 B   ---   --   ---xx   flac  0.4566  ttb2014-12-12s1t11.flac
     5:35.26       59155196 B   ---   --   ---xx   flac  0.6070  ttb2014-12-12s1t12.flac
     7:20.63       77764220 B   ---   --   ---xx   flac  0.5794  ttb2014-12-12s1t13.flac
     8:41.10       91927964 B   ---   --   ---xx   flac  0.5856  ttb2014-12-12s1t14.flac
     7:39.03       80974700 B   ---   --   ---xx   flac  0.5828  ttb2014-12-12s1t15.flac
     9:30.04      100557452 B   ---   --   ---xx   flac  0.6137  ttb2014-12-12s1t16.flac
     2:45.57       29240108 B   ---   --   ---xx   flac  0.5039  ttb2014-12-12s1t17.flac
     4:16.20       45205484 B   ---   --   ---xx   flac  0.5982  ttb2014-12-12s1t18.flac
     2:05.37       22137068 B   ---   --   ---xx   flac  0.4616  ttb2014-12-12s1t19.flac
    10:56.60      115859564 B   ---   --   ---xx   flac  0.5982  ttb2014-12-12s1t20.flac
   124:32.69     1318223968 B                            0.5770  (20 files)

Show Checksums
ffp
ttb2014-12-12s1t01.flac:88372907f785586cfa11268259d79749
ttb2014-12-12s1t02.flac:d2853668bbc541b4dcbe8f8a5e2c3f4d
ttb2014-12-12s1t03.flac:931e951c8a84dcf0ed28461d60258e96
ttb2014-12-12s1t04.flac:9cf9521ae5a2fe7b5d4149e0a76f1474
ttb2014-12-12s1t05.flac:155040c924084afa6943a9db173f8921
ttb2014-12-12s1t06.flac:80c8e90b736b7dbbf9b00d110db12701
ttb2014-12-12s1t07.flac:9665801dccee5e4856e22055c9b1357d
ttb2014-12-12s1t08.flac:e84374ae1fbb877a8543b321ccedc99b
ttb2014-12-12s1t09.flac:c98e9f71df00857fffc53be4b8156ad4
ttb2014-12-12s1t10.flac:9906709676db672ace17448589a7907e
ttb2014-12-12s1t11.flac:e235d7191d2e86c46638711d3d2717ba
ttb2014-12-12s1t12.flac:5d9bf75213c680221f1ae08515a63a23
ttb2014-12-12s1t13.flac:e32548adfc156577fcac22665bb2e31b
ttb2014-12-12s1t14.flac:319abc8533c2efee24411e400639876e
ttb2014-12-12s1t15.flac:4d486a239180d6a3a479ec628112e3c3
ttb2014-12-12s1t16.flac:6db30b59d3c5f55866a77ded99bd88a7
ttb2014-12-12s1t17.flac:db43606dcbb8dd4166ffbff22de4df0a
ttb2014-12-12s1t18.flac:68cb855189650e49dc26030531ec884b
ttb2014-12-12s1t19.flac:f658faaa92b9c957ab27b1111aea4e68
ttb2014-12-12s1t20.flac:d339017db120e09c5afc422714a03d74

Comments
Add Comment
Other Sources (comments)
Source: AKG C480B/CK63 >... (0) flac24 Source: AKG... (0)
Date User Comment