Browse Collections Artists Sources   Search Dates

Add Show    List Management    Help


Grateful Dead 04/13/89
Rosemont Horizon, Rosemont, IL
Comments Add Comment    Source Collectors    Add to Collection    Add to Want List    History
Source # 134548 Other Sources
Entered by Matt Vernon
Checksums orig-ffp , orig-md5 , flac-md5 , ffp
Disc Counts 0 / 0
Media Size Compressed: 785.37 MB (823515490 bytes)
Uncompressed: 1.27 GB (1360195320 bytes)
Date Circulated
Date Added
11/03/2015
11/03/2015
Source Summary flac16; Source: Audience recording; Lineage: OTS > Nakamichi CM-100's with CP-4 shotgun caps > Sony D-6; Transfer: MAC > tascam 112 > Edirol UA-5 > Audacity > 2448wav > R8 Brain > 1644 wav > Trader's Little Helper > flac16; Taped by Dan Taggart and Greg Holtz 
  Archive
Source Information - Download Text | Download Zip
Grateful Dead
04-11-1989
Rosemont Horizon
Rosemont, IL

Source: Audience recording

Lineage: OTS > Nakamichi CM-100's with CP-4 shotgun caps > Sony D-6

Transfer: MAC > tascam 112 > Edirol UA-5 > Audacity > 2448wav > R8 Brain > 1644 wav > Trader's Little Helper > flac16

Set 1

Track01 - Iko Iko
Track02 - Greatest Story Ever Told
Track03 - Peggy-o
Track04 - It's All Over Now
Track05 - To Lay Me Down
Track06 - Cassidy
Track07 - Don't Ease Me In

Set 2

Track08 - Foolish Heart
Track09 - Looks Like Rain
Track10 - Eyes Of The World
Track11 - Drums
Track12 - Space
Track13 - Wheel
Track14 - I Need A Miracle
Track15 - Dear Mr. Fantasy
Track16 - Goin' Down The Road Feelin' Bad
Track17 - Good Lovin'

Encore:

Track 18 - It's All Over Now Baby Blue


Encore can be placed seamlessly at the end of set 1 to fit the entire show on two audio CDs



- Taped by Dan Taggart and Greg Holtz

- Transferred and Edited by Greg Holtz

- Tracked, flac'ed, and packed by Greg Holtz

    length     expanded size    cdr  WAVE problems  fmt   ratio  filename
     6:46.17       71658428 B   ---   --   ---xx   flac  0.6029  gd1989-04-13.track01 - Iko Iko.flac
     5:01.37       53183468 B   ---   --   ---xx   flac  0.6030  gd1989-04-13.track02 - Greatest Story Ever Told.flac
     6:20.13       67062620 B   ---   --   ---xx   flac  0.5891  gd1989-04-13.track03 - Peggy-o.flac
     8:27.19       89479532 B   ---   --   ---xx   flac  0.6222  gd1989-04-13.track04 - It's All Over Now.flac
     8:55.22       94425788 B   ---   --   ---xx   flac  0.5911  gd1989-04-13.track05 - To Lay Me Down.flac
     6:22.16       67422476 B   ---   --   ---xx   flac  0.6072  gd1989-04-13.track06 - Cassidy.flac
     3:24.65       36138524 B   ---   --   ---xx   flac  0.6075  gd1989-04-13.track07 - Don't Ease Me In.flac
     9:31.37      100811468 B   ---   --   ---xx   flac  0.6403  gd1989-04-13.track08 - Foolish Heart.flac
     8:21.29       88444652 B   ---   --   ---xx   flac  0.6227  gd1989-04-13.track09 - Looks Like Rain.flac
    11:34.03      122428700 B   ---   --   ---xx   flac  0.6241  gd1989-04-13.track10 - Eyes Of The World.flac
     8:56.22       94602188 B   ---   --   ---xx   flac  0.5800  gd1989-04-13.track11 - Drums.flac
     7:52.33       83338460 B   ---   --   ---xx   flac  0.5222  gd1989-04-13.track12 - Space.flac
     5:02.56       53404556 B   ---   --   ---xx   flac  0.5958  gd1989-04-13.track13 - Wheel.flac
     4:11.63       44424620 B   ---   --   ---xx   flac  0.6274  gd1989-04-13.track14 - I Need A Miracle.flac
     7:26.63       78822620 B   ---   --   ---xx   flac  0.6140  gd1989-04-13.track15 - Dear Mr. Fantasy.flac
     5:33.65       58894124 B   ---   --   ---xx   flac  0.6198  gd1989-04-13.track16 - Goin' Down The Road Feelin' Bad.flac
     6:57.18       73601180 B   ---   --   ---xx   flac  0.6297  gd1989-04-13.track17 - Good Lovin'.flac
     7:45.11       82051916 B   ---   --   ---xx   flac  0.5973  gd1989-04-13.track18 - It's All Over Now Baby Blue.flac
   128:30.64     1360195320 B                            0.6054  (18 files)



Show Checksums
orig-ffp
gd1989-04-13.track01 - Iko Iko.flac:ca68e69d31c35bd3bbc686dfd2ee246c
gd1989-04-13.track02 - Greatest Story Ever Told.flac:8317326b22702887705e3b57b2bbb832
gd1989-04-13.track03 - Peggy-o.flac:959563a8627fcd521886e2b87f8dc896
gd1989-04-13.track04 - It's All Over Now.flac:b6b7a8d8ceb859a06b99e6349c722a67
gd1989-04-13.track05 - To Lay Me Down.flac:3cfbac603a81458a3f99ec5a8b00284c
gd1989-04-13.track06 - Cassidy.flac:b2516bd4b2b458370a11f48593fd6916
gd1989-04-13.track07 - Don't Ease Me In.flac:9df6889f1b84c0b37d9cfbfdde6f2eea
gd1989-04-13.track08 - Foolish Heart.flac:90f2afea3c7e5907069c007fada8bc3c
gd1989-04-13.track09 - Looks Like Rain.flac:d8cde399a497fa8df11a2972d4116531
gd1989-04-13.track10 - Eyes Of The World.flac:acbee4b962772ee3dc81cfae93d8ddf2
gd1989-04-13.track11 - Drums.flac:437e737fbcedc8bfb26999cb2d741d88
gd1989-04-13.track12 - Space.flac:680c2b87ccf82146fa57547807f88eda
gd1989-04-13.track13 - Wheel.flac:bb4e8c0033c714b0f13228962c76d8cf
gd1989-04-13.track14 - I Need A Miracle.flac:5cda8de3b45cf0ccc4cf54636a15b768
gd1989-04-13.track15 - Dear Mr. Fantasy.flac:a08b162c0c379bbfdef6ac95e214baf2
gd1989-04-13.track16 - Goin' Down The Road Feelin' Bad.flac:8adb92b8073f53f5e61c3df01253011c
gd1989-04-13.track17 - Good Lovin'.flac:b0fac35bcb3635615f723f7527a9b76a
gd1989-04-13.track18 - It's All Over Now Baby Blue.flac:ad3625a093719fdd264d23a169f2532c
orig-md5
e00f9d0d53118f86d151f5a3960ce4ba *gd1989-04-13.track01 - Iko Iko.flac
2a7bdd9938f4d94ec77310e235e4ee4c *gd1989-04-13.track02 - Greatest Story Ever Told.flac
deec1cbef64059064bf49ffcedad7205 *gd1989-04-13.track03 - Peggy-o.flac
6f70e1bb9fec34eb834706b62c6e7513 *gd1989-04-13.track04 - It's All Over Now.flac
2020e64f8003f7646cb0b775f44a28f0 *gd1989-04-13.track05 - To Lay Me Down.flac
7801565b1d7c5487cbfad5f4d3d947b3 *gd1989-04-13.track06 - Cassidy.flac
47fc3844211186d2a0159288b3fc9003 *gd1989-04-13.track07 - Don't Ease Me In.flac
d77d2902c151d9b81375c898782c989e *gd1989-04-13.track08 - Foolish Heart.flac
d22bd66dc60269aa1f52ad44fce02fe5 *gd1989-04-13.track09 - Looks Like Rain.flac
b04571470c6a530eb50c4aa18a504a1c *gd1989-04-13.track10 - Eyes Of The World.flac
9fc452b182a7607b09205dfa6e88100a *gd1989-04-13.track11 - Drums.flac
2342fa7578d11643a893f6c1633067f3 *gd1989-04-13.track12 - Space.flac
c26b46d8449b6ed8a3bfd7b4cd622de9 *gd1989-04-13.track13 - Wheel.flac
cea63fa376e0cb03fe7fbccbd800fe71 *gd1989-04-13.track14 - I Need A Miracle.flac
f412726a95a1aaf6a8f43f9b691a2887 *gd1989-04-13.track15 - Dear Mr. Fantasy.flac
b9b3ea296be3f5310c97a96a047a49c0 *gd1989-04-13.track16 - Goin' Down The Road Feelin' Bad.flac
c7c6ab1e736da79bc866154a1d76db16 *gd1989-04-13.track17 - Good Lovin'.flac
236f81e656975b26d6fa2efb8e59d7d2 *gd1989-04-13.track18 - It's All Over Now Baby Blue.flac
flac-md5
e00f9d0d53118f86d151f5a3960ce4ba *track01.flac
2a7bdd9938f4d94ec77310e235e4ee4c *track02.flac
deec1cbef64059064bf49ffcedad7205 *track03.flac
6f70e1bb9fec34eb834706b62c6e7513 *track04.flac
2020e64f8003f7646cb0b775f44a28f0 *track05.flac
7801565b1d7c5487cbfad5f4d3d947b3 *track06.flac
47fc3844211186d2a0159288b3fc9003 *track07.flac
d77d2902c151d9b81375c898782c989e *track08.flac
d22bd66dc60269aa1f52ad44fce02fe5 *track09.flac
b04571470c6a530eb50c4aa18a504a1c *track10.flac
9fc452b182a7607b09205dfa6e88100a *track11.flac
2342fa7578d11643a893f6c1633067f3 *track12.flac
c26b46d8449b6ed8a3bfd7b4cd622de9 *track13.flac
cea63fa376e0cb03fe7fbccbd800fe71 *track14.flac
f412726a95a1aaf6a8f43f9b691a2887 *track15.flac
b9b3ea296be3f5310c97a96a047a49c0 *track16.flac
c7c6ab1e736da79bc866154a1d76db16 *track17.flac
236f81e656975b26d6fa2efb8e59d7d2 *track18.flac
ffp
track01.flac:ca68e69d31c35bd3bbc686dfd2ee246c
track02.flac:8317326b22702887705e3b57b2bbb832
track03.flac:959563a8627fcd521886e2b87f8dc896
track04.flac:b6b7a8d8ceb859a06b99e6349c722a67
track05.flac:3cfbac603a81458a3f99ec5a8b00284c
track06.flac:b2516bd4b2b458370a11f48593fd6916
track07.flac:9df6889f1b84c0b37d9cfbfdde6f2eea
track08.flac:90f2afea3c7e5907069c007fada8bc3c
track09.flac:d8cde399a497fa8df11a2972d4116531
track10.flac:acbee4b962772ee3dc81cfae93d8ddf2
track11.flac:437e737fbcedc8bfb26999cb2d741d88
track12.flac:680c2b87ccf82146fa57547807f88eda
track13.flac:bb4e8c0033c714b0f13228962c76d8cf
track14.flac:5cda8de3b45cf0ccc4cf54636a15b768
track15.flac:a08b162c0c379bbfdef6ac95e214baf2
track16.flac:8adb92b8073f53f5e61c3df01253011c
track17.flac:b0fac35bcb3635615f723f7527a9b76a
track18.flac:ad3625a093719fdd264d23a169f2532c

Comments
Add Comment
Other Sources (comments)
SBD > MC > Dat > CDR > EAC... (3) flac16; Recording... (0) flac24; Master... (0) flac16; Master... (0) flac16; Source Info:... (0)
Date User Comment