Browse Collections Artists Sources   Search Dates

Add Show    List Management    Help


Garcia 11/14/74
Paul's Mall, Boston, MA
Comments Add Comment    Source Collectors    Add to Collection    Add to Want List    History
Source # 135968 Other Sources
Entered by Joe Jupille
Checksums jgms1974-11-14-early.md5 , jgms1974-11-14-early.ffp
Disc Counts 0 / 0
Media Size Compressed: 665.69 MB (698023936 bytes)
Uncompressed: 1.07 GB (1147329516 bytes)
Date Circulated
Date Added
06/18/2016
06/18/2016
Source Summary JGMS; flac1644; early show: AUD marked "1st Gen" rescued from ebay for coupla bucks. Transfer: XLII > Nakamichi CR-5A > Edirol FA-66 > Wavelab 2448 > R8Brain SRC > Wavelab (adding 16-bit patches) > CD-Wave > TLH > FLAC 1644 tagged. Transferred by Andrew F. 06/2016 
Source Information - Download Text | Download Zip
GARCIA & SAUNDERS
Paul's Mall
Boston MA
11-14-1974
Early Show

01 The Harder They Come
02 Favela
03 Let it Rock
04 My Problems Got Problems
05 Mystery Train (female audience member singing at end)
06 My Funny Valentine >
07 People Make the World Go Round
08 Just Kissed My Baby
09 Valdez in the Country

Source: AUD marked "1st Gen" rescued from ebay for coupla bucks.

Transfer: XLII > Nakamichi CR-5A > Edirol FA-66 > Wavelab 2448 >
R8Brain SRC > Wavelab (adding 16-bit patches) > CD-Wave > TLH >
FLAC 1644 tagged. Transferred by Andrew F. 06/2016

Note: Recording does not match ID-16461, Lucky us, now we have two!
This one appears to be closer to the P.A. with lots of crowd chatter,
has a real "you-are-there" sound. Also contains THTC and the complete
PMTWGR. The tape was tightly edited with most songs clipped at start,
THTC & MFV have a bit missing. Several patches from ID-16461 added to
make the show as complete as possible; first 08 seconds Favela, first
21 seconds Let it Rock, first 07 seconds Problems, also in Problems
06 seconds starting at 10:29, first 16 seconds Mystery Train, first 08
seconds Just Kissed, and from 10:02 Just Kissed thru to end of show.

    length     expanded size    cdr  WAVE problems  fmt   ratio  filename
    18:19.42      193962428 B   ---   --   ---xx   flac  0.6276  jgms1974-11-14-early-t01.flac
    11:02.74      116950892 B   ---   --   ---xx   flac  0.6178  jgms1974-11-14-early-t02.flac
     6:47.10       71818364 B   ---   --   ---xx   flac  0.6177  jgms1974-11-14-early-t03.flac
    14:47.72      156636188 B   ---   --   ---xx   flac  0.6235  jgms1974-11-14-early-t04.flac
    13:15.46      140346236 B   ---   --   ---xx   flac  0.6194  jgms1974-11-14-early-t05.flac
    14:54.73      157873340 B   ---   --   ---xx   flac  0.6113  jgms1974-11-14-early-t06.flac
     4:23.44       46496732 B   ---   --   ---xx   flac  0.5726  jgms1974-11-14-early-t07.flac
    11:29.36      121624316 B   ---   --   ---xx   flac  0.5839  jgms1974-11-14-early-t08.flac
    13:22.63      141621020 B   ---   --   ---xx   flac  0.5676  jgms1974-11-14-early-t09.flac
   108:24.10     1147329516 B                            0.6079  (9 files)

No errors occured.


Show Checksums
jgms1974-11-14-early.md5
5de1b268261d689f4a84ca22dbe478fa *jgms1974-11-14-early-t01.flac
9d5bf7c8f8d82d28d357366115321e59 *jgms1974-11-14-early-t02.flac
a0080c1056c84614ae338575d75cde0b *jgms1974-11-14-early-t03.flac
e2a0b3d79b2d5c928c97700d91f12a79 *jgms1974-11-14-early-t04.flac
034984fa2ab0d0b622a238fb032be8b6 *jgms1974-11-14-early-t05.flac
662be4ee7b9dffa778728e41c8d59edd *jgms1974-11-14-early-t06.flac
894cf337802cfa8a6428db8caa1e0736 *jgms1974-11-14-early-t07.flac
d134231586312e8ed8a4c59cdfdfd3fc *jgms1974-11-14-early-t08.flac
fff931116c699ece1766aa45f1eb901a *jgms1974-11-14-early-t09.flac
jgms1974-11-14-early.ffp
jgms1974-11-14-early-t01.flac:7194a036c2d062bec767e58f048098ca
jgms1974-11-14-early-t02.flac:478466f57c59ff1297929c2dadce81db
jgms1974-11-14-early-t03.flac:4b042997615b50931660dcb255b654d6
jgms1974-11-14-early-t04.flac:767bf7198bb3a48c3219290d6cd292e6
jgms1974-11-14-early-t05.flac:96c5be4b2dd741fa54e2484aef6aa5d4
jgms1974-11-14-early-t06.flac:26a3ad15af8b020a4e00728f21efd9a3
jgms1974-11-14-early-t07.flac:c0d4a130157d2f79ea53c64678ac76b5
jgms1974-11-14-early-t08.flac:c9fbdfe80a3df1974642310634ca6a39
jgms1974-11-14-early-t09.flac:c0acf56d80f9b4b0e5464dea842b0ef9

Comments
Add Comment
Other Sources (comments)
Garcia & Saunders: Early... (1)
Date User Comment